Любовь со вкусом / Foodies (2022) WEBRip [H.264/1080p]

Ответить на тему
 
Автор Сообщение

admin ®

Пол: Не указан

Стаж: 4 месяца 23 дня

Сообщений: 10110

Создавать темы 30-Янв-2024 17:17

[Цитировать]

Любовь со вкусом / Foodies (2022) WEBRip [H.264/1080p]- Производство: Нидерланды / Goldman Film, Phanta Film
Жанр: драма, мелодрама, комедия
Режиссер: Маннин де Вильдт
Продюсер: Майке Беншоп, Петра Гудингс, Эдвин Голдман
Актеры: Санне Фогель, Синан Эроглу, Санне Лангелаар, Холли Мэй Бруд, Аннеке Блок, Йоханна Хаген, Зиара Янссен, Марк Нохем, Люк Питерс, Ник Розен
Описание:
Популярная фуд-блогерша Сэм встречает парня своей мечты Марко, их чувства быстро перерастают в настоящий роман. Случайно Сэм пишет разгромный отзыв на кухню недавно открывшегося ресторана, шеф-поваром которого и является Марко. Она понимает, что все тайное рано или поздно становится явным.
Возраст: 16+ (зрителям, достигшим 16 лет)
Релиз от: karfagen1975|Soft-Torrent - торрент игры программы фильмы книги скачать
Продолжительность: 01:32:34
Качество видео: WEBRip
Перевод: Дублированный (Leff Sound)
Язык озвучки: Русский
Субтитры: Отсутствуют
Видео: AVC/H.264, 1920x1080, ~6140 Kbps
Аудио: AC3, 6 ch, 640 Kbps - Русский (DUB)

MediaInfo:

General
Unique ID : 119553181450952058624763750847028244349 (0x59F11AEF102DCA302614667D8A05AF7D)
Complete name : Foodies (2022) WEB-DL 1080p.mkv
Format : Matroska
Format version : Version 4
File size : 4.38 GiB
Duration : 1 h 32 min
Overall bit rate mode : Constant
Overall bit rate : 6 773 kb/s
Encoded date : UTC 2023-08-14 14:58:14
Writing application : mkvmerge v75.0.0 ('Goliath') 64-bit
Writing library : libebml v1.4.4 + libmatroska v1.7.1
Video
ID : 1
Format : AVC
Format/Info : Advanced Video Codec
Format profile : Baseline@L4
Format settings : 2 Ref Frames
Format settings, CABAC : No
Format settings, Reference frames : 2 frames
Codec ID : V_MPEG4/ISO/AVC
Duration : 1 h 32 min
Bit rate mode : Constant
Bit rate : 6 144 kb/s
Width : 1 920 pixels
Height : 1 080 pixels
Display aspect ratio : 16:9
Frame rate mode : Constant
Frame rate : 24.000 FPS
Color space : YUV
Chroma subsampling : 4:2:0
Bit depth : 8 bits
Scan type : Progressive
Bits/(Pixel*Frame) : 0.123
Stream size : 3.96 GiB (91%)
Title : Любовь со вкусом (2022) WEB-DL 1080p
Language : Dutch
Default : Yes
Forced : No
Audio
ID : 2
Format : AC-3
Format/Info : Audio Coding 3
Commercial name : Dolby Digital
Codec ID : A_AC3
Duration : 1 h 32 min
Bit rate mode : Constant
Bit rate : 640 kb/s
Channel(s) : 6 channels
Channel layout : L R C LFE Ls Rs
Sampling rate : 48.0 kHz
Frame rate : 31.250 FPS (1536 SPF)
Compression mode : Lossy
Stream size : 424 MiB (9%)
Title : DUB (Leff Sound)
Language : Russian
Service kind : Complete Main
Default : Yes
Forced : No
Скриншоты:
Все одноименные релизы в КлубеВремя раздачи: 24/7 (круглосуточно) (минимум до появления первых 3-5 скачавших)
[Профиль] [ЛС]
Показать сообщения:    
Ответить на тему

Текущее время: 22-Фев 00:49

Часовой пояс: UTC ± 0



Вы не можете начинать темы
Вы не можете отвечать на сообщения
Вы не можете редактировать свои сообщения
Вы не можете удалять свои сообщения
Вы не можете голосовать в опросах
Вы не можете прикреплять файлы к сообщениям
Вы не можете скачивать файлы

[  Время выполнения: 0,036 сек  |  MySQL: 0,003 сек (9%) · 3 запр.  |  GZIP выкл  |  Память: 421,85 KB / 1,73 MB / 1,34 MB  |  Лимит: 16 16 16  ]