Пантафа — пожирательница душ / Pantafa (2022) WEBRip [H.264/1080p]

Ответить на тему
 
Автор Сообщение

admin ®

Пол: Не указан

Стаж: 5 месяца

Сообщений: 10110

Создавать темы 30-Янв-2024 17:17

[Цитировать]

Пантафа — пожирательница душ / Pantafa (2022) WEBRip [H.264/1080p]- Производство: Италия / Fandango, Ministero della Cultura (MiC)
Жанр: ужасы
Режиссер: Эмануэле Скаринги
Продюсер: Лаура Паолуччи, Доменико Прокаччи, Иван Фьорини
Актеры: Кася Смутняк, Грета Санти, Марио Сгуэлья, Мауро Марино, Франческо Колелла, Джузеппе Чедерна, Уго Де Сезаре, Элизабетта Педрацци
Описание:
Бывшая танцовщица Марта вместе с дочерью переезжает в горную деревушку Маланотте, неприветливую, полную странных суеверий. Уже в первую ночь к девочке во сне приходит призрак ужасной Пантафы, которая крадет ее дыхание. Марта принимает пугающие признания девочки за фантазию. Однако с каждым днем окружающая обстановка становится все более зловещей, и Марта уже сама не в состоянии отличить дневной кошмар от ночного морока.
Возраст: 18+ (зрителям, достигшим 18 лет. запрещено для детей)
Релиз от: karfagen1975|Soft-Torrent - торрент игры программы фильмы книги скачать
Продолжительность: 01:40:38
Качество видео: WEBRip
Перевод: Дублированный (Студия Позитив)
Язык озвучки: Русский
Субтитры: Отсутствуют
Видео: AVC/H.264, 1920x1080, ~4000 Kbps
Аудио: AAC, 2 ch, 128 Kbps - Русский (DUB)

MediaInfo:

General
Unique ID : 265521519000200535938567888320717436348 (0xC7C1959D58B44176F52180AA593CB5BC)
Complete name : Pantafa (2022) WEB-DL 1080p.mkv
Format : Matroska
Format version : Version 4
File size : 2.90 GiB
Duration : 1 h 40 min
Overall bit rate : 4 126 kb/s
Encoded date : UTC 2023-08-14 14:34:35
Writing application : mkvmerge v75.0.0 ('Goliath') 64-bit
Writing library : libebml v1.4.4 + libmatroska v1.7.1
Video
ID : 1
Format : AVC
Format/Info : Advanced Video Codec
Format profile : High@L4
Format settings : CABAC / 3 Ref Frames
Format settings, CABAC : Yes
Format settings, Reference frames : 3 frames
Codec ID : V_MPEG4/ISO/AVC
Duration : 1 h 40 min
Bit rate : 3 996 kb/s
Width : 1 920 pixels
Height : 1 080 pixels
Display aspect ratio : 16:9
Frame rate mode : Constant
Frame rate : 25.000 FPS
Color space : YUV
Chroma subsampling : 4:2:0
Bit depth : 8 bits
Scan type : Progressive
Bits/(Pixel*Frame) : 0.077
Stream size : 2.81 GiB (97%)
Title : Пантафа — пожирательница душ (2022) WEB-DL 1080p
Language : Italian
Default : Yes
Forced : No
Audio
ID : 2
Format : AAC LC
Format/Info : Advanced Audio Codec Low Complexity
Codec ID : A_AAC-2
Duration : 1 h 40 min
Bit rate : 128 kb/s
Channel(s) : 2 channels
Channel layout : L R
Sampling rate : 48.0 kHz
Frame rate : 46.875 FPS (1024 SPF)
Compression mode : Lossy
Stream size : 92.0 MiB (3%)
Title : DUB (Студия Позитив)
Language : Russian
Default : Yes
Forced : No
Скриншоты:
Все одноименные релизы в КлубеВремя раздачи: 24/7 (круглосуточно) (минимум до появления первых 3-5 скачавших)
[Профиль] [ЛС]
Показать сообщения:    
Ответить на тему

Текущее время: 28-Фев 22:14

Часовой пояс: UTC ± 0



Вы не можете начинать темы
Вы не можете отвечать на сообщения
Вы не можете редактировать свои сообщения
Вы не можете удалять свои сообщения
Вы не можете голосовать в опросах
Вы не можете прикреплять файлы к сообщениям
Вы не можете скачивать файлы

[  Время выполнения: 0,035 сек  |  MySQL: 0,003 сек (9%) · 3 запр.  |  GZIP выкл  |  Память: 422,29 KB / 1,74 MB / 1,34 MB  |  Лимит: 22 19 18  ]