Проклятие черного паука / Die Schwarze Spinne / The Black Spider (2022) BDRip [H.264/1080p]

Ответить на тему
 
Автор Сообщение

admin ®

Пол: Не указан

Стаж: 4 месяца 27 дня

Сообщений: 10110

Создавать темы 30-Янв-2024 17:17

[Цитировать]

Проклятие черного паука / Die Schwarze Spinne / The Black Spider (2022) BDRip [H.264/1080p]- Производство: Швейцария, Венгрия / Ionart Studio, Laokoon Filmgroup, Snakefilm
Жанр: триллер, драма
Режиссер: Маркус Фишер
Продюсер: Юдит Лихтнеткерт,
Актеры: Нурит Хиршфельд , Маркус Зигнер, Лилит Штангенберг, Рональд Церфельд, Анатоль Таубман, Марин Блюлле, Филипп Дроште, Мария Дер, Марина Гера, Юлия Якубовска
Описание: Швейцария, XIII век. Чтобы защитить свою деревню от жестокости тевтонских рыцарей, молодая повитуха Кристина заключает сделку с самим дьяволом. Но все имеет свою цену: на деревню нападает полчище пауков, и Кристина из спасительницы становится изгоем. Хватит ли ей духа побороть зло, если все вокруг желают ей смерти?
Возраст: 18+ (зрителям, достигшим 18 лет. запрещено для детей)
Релиз от: Кинозал
Продолжительность: 01:55:57
Качество видео: BDRip 1080p
Перевод: Дублированный (OKKO)
Язык озвучки: Русский, Немецкий
Субтитры: Английские (Full)
Видео: AVC/H.264, 1920x1080, 30.0 Mbps, 24.000 fps
Аудио 1: AC-3, 6 ch, 384 Kbps | Русский
Аудио 2: DTS-HD MA, 6 ch, 2129 Kbps | Немецкий

Mediainfo:

General
Unique ID : 48335414713778579599983490644256062312 (0x245D0FF015E3FE08A0123E21DBA97B68)
Complete name : /Volumes/Promise Pegasus/Die.Schwarze.Spinne.2022.BDRemux.1080p.mkv
Format : Matroska
Format version : Version 4
File size : 26.3 GiB
Duration : 1 h 55 min
Overall bit rate mode : Variable
Overall bit rate : 32.4 Mb/s
Frame rate : 24.000 FPS
Movie name : Die schwarze Spinne 2022 BDRemux 1080p
Encoded date : 2023-08-14 22:19:34 UTC
Writing application : mkvmerge v73.0.0 ('25 or 6 to 4') 64-bit
Writing library : libebml v1.4.4 + libmatroska v1.7.1
Cover : Yes
Attachments : cover.jpg
Video
ID : 1
ID in the original source medium : 4113 (0x1011)
Format : AVC
Format/Info : Advanced Video Codec
Format profile : High@L4.1
Format settings : CABAC / 3 Ref Frames
Format settings, CABAC : Yes
Format settings, Reference frames : 3 frames
Codec ID : V_MPEG4/ISO/AVC
Duration : 1 h 55 min
Bit rate mode : Variable
Bit rate : 30.0 Mb/s
Maximum bit rate : 35.0 Mb/s
Width : 1 920 pixels
Height : 1 080 pixels
Display aspect ratio : 16:9
Frame rate mode : Constant
Frame rate : 24.000 FPS
Color space : YUV
Chroma subsampling : 4:2:0
Bit depth : 8 bits
Scan type : Progressive
Bits/(Pixel*Frame) : 0.603
Stream size : 24.2 GiB (92%)
Writing library : x264 core 161 r3048 b86ae3c
Encoding settings : cabac=1 / ref=4 / deblock=1:0:0 / analyse=0x3:0x113 / me=hex / subme=8 / psy=1 / psy_rd=1.00:0.00 / mixed_ref=1 / me_range=16 / chroma_me=1 / trellis=2 / 8x8dct=1 / cqm=0 / deadzone=21,11 / fast_pskip=1 / chroma_qp_offset=-2 / threads=30 / lookahead_threads=5 / sliced_threads=0 / slices=4 / nr=0 / decimate=1 / interlaced=0 / bluray_compat=1 / constrained_intra=0 / bframes=3 / b_pyramid=1 / b_adapt=1 / b_bias=0 / direct=3 / weightb=1 / open_gop=1 / weightp=1 / keyint=24 / keyint_min=1 / scenecut=40 / intra_refresh=0 / rc_lookahead=24 / rc=2pass / mbtree=1 / bitrate=30000 / ratetol=1.0 / qcomp=0.60 / qpmin=0 / qpmax=69 / qpstep=4 / cplxblur=20.0 / qblur=0.5 / vbv_maxrate=35000 / vbv_bufsize=30000 / nal_hrd=vbr / filler=0 / ip_ratio=1.40 / aq=1:1.00
Language : German
Default : Yes
Forced : No
Color range : Limited
Color primaries : BT.709
Transfer characteristics : BT.709
Matrix coefficients : BT.709
Original source medium : Blu-ray
Audio #1
ID : 2
Format : AC-3
Format/Info : Audio Coding 3
Commercial name : Dolby Digital
Codec ID : A_AC3
Duration : 1 h 55 min
Bit rate mode : Constant
Bit rate : 384 kb/s
Channel(s) : 6 channels
Channel layout : L R C LFE Ls Rs
Sampling rate : 48.0 kHz
Frame rate : 31.250 FPS (1536 SPF)
Compression mode : Lossy
Stream size : 318 MiB (1%)
Title : Russian Dub OKKO
Language : Russian
Service kind : Complete Main
Default : Yes
Forced : No
Audio #2
ID : 3
ID in the original source medium : 4352 (0x1100)
Format : DTS XLL
Format/Info : Digital Theater Systems
Commercial name : DTS-HD Master Audio
Codec ID : A_DTS
Duration : 1 h 55 min
Bit rate mode : Variable
Bit rate : 2 129 kb/s
Channel(s) : 6 channels
Channel layout : C L R Ls Rs LFE
Sampling rate : 48.0 kHz
Frame rate : 93.750 FPS (512 SPF)
Bit depth : 16 bits
Compression mode : Lossless
Stream size : 1.72 GiB (7%)
Title : German Original
Language : German
Default : No
Forced : No
Original source medium : Blu-ray
Text
ID : 4
Format : UTF-8
Codec ID : S_TEXT/UTF8
Codec ID/Info : UTF-8 Plain Text
Duration : 1 h 55 min
Bit rate : 25 b/s
Frame rate : 0.121 FPS
Count of elements : 835
Stream size : 21.2 KiB (0%)
Title : English full
Language : English
Default : No
Forced : No
Menu
00:00:00.000 : en:Глава 01
00:09:03.500 : en:Глава 02
00:17:22.375 : en:Глава 03
00:27:07.416 : en:Глава 04
00:35:54.833 : en:Глава 05
00:44:05.958 : en:Глава 06
00:52:55.583 : en:Глава 07
01:01:14.208 : en:Глава 08
01:11:14.416 : en:Глава 09
01:19:52.625 : en:Глава 10
01:29:02.958 : en:Глава 11
01:39:12.458 : en:Глава 12
01:51:43.500 : en:Глава 13
Скриншоты:
Все одноименные релизы в КлубеВремя раздачи: 24/7 (круглосуточно) (до появления первых 3-5 скачавших)
[Профиль] [ЛС]
Показать сообщения:    
Ответить на тему

Текущее время: 25-Фев 22:27

Часовой пояс: UTC ± 0



Вы не можете начинать темы
Вы не можете отвечать на сообщения
Вы не можете редактировать свои сообщения
Вы не можете удалять свои сообщения
Вы не можете голосовать в опросах
Вы не можете прикреплять файлы к сообщениям
Вы не можете скачивать файлы

[  Время выполнения: 0,031 сек  |  MySQL: 0,004 сек (12%) · 3 запр.  |  GZIP выкл  |  Память: 422,29 KB / 1,73 MB / 1,35 MB  |  Лимит: 8 10 13  ]