Рай для дурака / Fool's Paradise (2023) WEB-DL [H.264/1080p]

Ответить на тему
 
Автор Сообщение

admin ®

Пол: Не указан

Стаж: 6 месяца 22 дня

Сообщений: 11520

Создавать темы 30-Янв-2024 17:16

[Цитировать]

Рай для дурака / Fool's Paradise (2023) WEB-DL [H.264/1080p]- Производство: США / Armory Films, Page Fifty-Four Pictures, Rickard Pictures
Жанр: комедия
Режиссер: Чарли Дэй
Актеры: Эдриан Броуди, Кен Жонг, Чарли Дэй, Кейт Бекинсейл, Джон Малкович, Джейсон Судейкис, Рэй Лиотта, Джейсон Бейтмен, Мэри Элизабет Эллис, Трэвис Фиммел
Описание:
Знаменитый актер отказывается выходить на съемочную площадку. Судьба картины под вопросом. И тут продюсер встречает на улице человека, похожего на своего капризного актера, как две капли воды. Вместе со сценаристом и непредсказуемым режиссером он решает использовать его как двойника для съемок и не только.
Возраст: 18+ (зрителям, достигшим 18 лет. запрещено для детей)
Рейтинг MPAA: R (лицам до 17 лет обязательно присутствие взрослого)
Продолжительность: 01:38:19
Качество видео: WEB-DL (1080p)
Перевод: Дублированный (Мосфильм-Мастер)
Язык озвучки: Русский, английский
Субтитры: Английские
Видео: AVC/H.264, 1920x800, ~9156 Kbps
Аудио #1: AC3, 6 ch, 384 Kbps - Русский - Дублированный (Мосфильм-Мастер)
Аудио #2: E-AC3, 6 ch, 384 Kbps - Русский - Дублированный (Мосфильм-Мастер)
Аудио #3: E-AC3, 6 ch, 640 Kbps - Английский - (Оригинал)

MediaInfo:

Общее
Уникальный идентификатор : 136094016373301704783404866348200580950 (0x6662C10F38F57B686DF7A861F9DD5756)
Полное имя : D:\NNM\Рай для дурака\Fools.Paradise.2023.AMZN.WEB-DL.1080p.seleZen.mkv
Формат : Matroska
Версия формата : Version 4
Размер файла : 7,40 Гбайт
Продолжительность : 1 ч. 38 м.
Общий поток : 10,8 Мбит/сек
Название фильма : Fools Paradise 2023 from seleZen
Дата кодирования : UTC 2023-08-14 21:55:29
Программа кодирования : mkvmerge v77.0 ('Elemental') 64-bit
Библиотека кодирования : libebml v1.4.4 + libmatroska v1.7.1
Видео
Идентификатор : 1
Формат : AVC
Формат/Информация : Advanced Video Codec
Профиль формата : High@L4
Настройки формата : CABAC / 4 Ref Frames
Параметр CABAC формата : Да
Параметр RefFrames формата : 4 кадра
Идентификатор кодека : V_MPEG4/ISO/AVC
Продолжительность : 1 ч. 38 м.
Вид битрейта : Постоянный
Битрейт : 9 369 Кбит/сек
Номинальный битрейт : 10 000 Кбит/сек
Ширина : 1 920 пикселей
Высота : 800 пикселей
Соотношение сторон : 2,40:1
Режим частоты кадров : Постоянный
Частота кадров : 23,976 (24000/1001) кадра/сек
Цветовое пространство : YUV
Субдискретизация насыщенности : 4:2:0
Битовая глубина : 8 бит
Тип развёртки : Прогрессивная
Бит/(Пиксели*Кадры) : 0.254
Размер потока : 6,43 Гбайт (87%)
Язык : English
Default : Да
Forced : Нет
Цветовой диапазон : Limited
Основные цвета : BT.709
Характеристики трансфера : BT.709
Коэффициенты матрицы : BT.709
Аудио #1
Идентификатор : 2
Формат : AC-3
Формат/Информация : Audio Coding 3
Коммерческое название : Dolby Digital
Идентификатор кодека : A_AC3
Продолжительность : 1 ч. 38 м.
Вид битрейта : Постоянный
Битрейт : 384 Кбит/сек
Каналы : 6 каналов
Channel layout : L R C LFE Ls Rs
Частота : 48,0 КГц
Частота кадров : 31,250 кадров/сек (1536 SPF)
Метод сжатия : С потерями
Размер потока : 270 Мбайт (4%)
Заголовок : Dub
Язык : Russian
Service kind : Complete Main
Default : Да
Forced : Нет
Аудио #2
Идентификатор : 3
Формат : E-AC-3
Формат/Информация : Enhanced AC-3
Коммерческое название : Dolby Digital Plus
Идентификатор кодека : A_EAC3
Продолжительность : 1 ч. 38 м.
Вид битрейта : Постоянный
Битрейт : 384 Кбит/сек
Каналы : 6 каналов
Channel layout : L R C LFE Ls Rs
Частота : 48,0 КГц
Частота кадров : 31,250 кадров/сек (1536 SPF)
Метод сжатия : С потерями
Размер потока : 270 Мбайт (4%)
Заголовок : Dub
Язык : Russian
Service kind : Complete Main
Default : Нет
Forced : Нет
Аудио #3
Идентификатор : 4
Формат : E-AC-3
Формат/Информация : Enhanced AC-3
Коммерческое название : Dolby Digital Plus
Идентификатор кодека : A_EAC3
Продолжительность : 1 ч. 38 м.
Вид битрейта : Постоянный
Битрейт : 640 Кбит/сек
Каналы : 6 каналов
Channel layout : L R C LFE Ls Rs
Частота : 48,0 КГц
Частота кадров : 31,250 кадров/сек (1536 SPF)
Метод сжатия : С потерями
Размер потока : 450 Мбайт (6%)
Заголовок : Original
Язык : English
Service kind : Complete Main
Default : Нет
Forced : Нет
Текст #1
Идентификатор : 5
Формат : UTF-8
Идентификатор кодека : S_TEXT/UTF8
Идентификатор кодека/Информация : UTF-8 Plain Text
Продолжительность : 1 ч. 31 м.
Битрейт : 83 бит/сек
Count of elements : 1678
Размер потока : 56,5 Кбайт (0%)
Заголовок : Full
Язык : English
Default : Нет
Forced : Нет
Текст #2
Идентификатор : 6
Формат : UTF-8
Идентификатор кодека : S_TEXT/UTF8
Идентификатор кодека/Информация : UTF-8 Plain Text
Продолжительность : 1 ч. 37 м.
Битрейт : 89 бит/сек
Count of elements : 1900
Размер потока : 63,7 Кбайт (0%)
Заголовок : SDH
Язык : English
Default : Нет
Forced : Нет
Скриншоты: Все одноименные релизы в КлубеВремя раздачи: 24/7 (до 10-ти скачавших)
[Профиль] [ЛС]
Показать сообщения:    
Ответить на тему

Текущее время: 20-Апр 20:52

Часовой пояс: UTC ± 0



Вы не можете начинать темы
Вы не можете отвечать на сообщения
Вы не можете редактировать свои сообщения
Вы не можете удалять свои сообщения
Вы не можете голосовать в опросах
Вы не можете прикреплять файлы к сообщениям
Вы не можете скачивать файлы

[  Время выполнения: 0,035 сек  |  MySQL: 0,003 сек (9%) · 3 запр.  |  GZIP выкл  |  Память: 422,29 KB / 1,75 MB / 1,37 MB  |  Лимит: 6 6 6  ]