Любовь со вкусом / Foodies (2022) WEB-DLRip

Ответить на тему
 
Автор Сообщение

admin ®

Пол: Не указан

Стаж: 5 месяца 1 день

Сообщений: 10110

Создавать темы 30-Янв-2024 17:16

[Цитировать]

Любовь со вкусом / Foodies (2022) WEB-DLRip- Производство: Нидерланды / Phanta Film, Goldman Film
Жанр: драма, мелодрама, комедия
Режиссер: Маннин де Вильдт
Актеры: Санне Фогель, Синан Эроглу, Санне Лангелаар, Холли Мэй Бруд, Аннеке Блок, Йоханна Хаген, Зиара Янссен, Марк Нохем, Люк Питерс, Ник Розен
Описание:
Популярная фуд-блогерша Сэм встречает парня своей мечты Марко, их чувства быстро перерастают в настоящий роман. Случайно Сэм пишет разгромный отзыв на кухню недавно открывшегося ресторана, шеф-поваром которого и является Марко. Она понимает, что все тайное рано или поздно становится явным.
Продолжительность: 01:32:34
Качество видео: WEB-DLRip
Перевод: Дублированный (Leff Sound)
Язык озвучки: Русский
Субтитры: Отсутствуют
Видео: XviD, 720x304, ~1802 Kbps
Аудио: AC-3, 6 ch, 448 Kbps

MediaInfo:

Общее
Полное имя : D:\NNM\Любовь со вкусом\Lyubov.so.vkusom.2022.WEB-DLRip.ELEKTRI4KA.UNIONGANG.avi
Формат : AVI
Формат/Информация : Audio Video Interleave
Размер файла : 1,46 Гбайт
Продолжительность : 1 ч. 32 м.
Общий поток : 2 260 Кбит/сек
Программа кодирования : VirtualDubMod 1.5.10.3 | www.virtualdub-fr.org || (build 2550/release)
Библиотека кодирования : VirtualDubMod build 2550/release
Видео
Идентификатор : 0
Формат : MPEG-4 Visual
Профиль формата : Advanced Simple@L5
Настройки формата : BVOP1 / Custom Matrix
Параметр BVOP формата : 1
Параметр QPel формата : Нет
Параметр GMC формата : Без точки перехода
Параметр матрицы формата : Выборочная
Идентификатор кодека : XVID
Идентификатор кодека/Подсказка : XviD
Продолжительность : 1 ч. 32 м.
Битрейт : 1 802 Кбит/сек
Ширина : 720 пикселей
Высота : 304 пикселя
Соотношение сторон : 2,35:1
Частота кадров : 24,000 кадра/сек
Цветовое пространство : YUV
Субдискретизация насыщенности : 4:2:0
Битовая глубина : 8 бит
Тип развёртки : Прогрессивная
Метод сжатия : С потерями
Бит/(Пиксели*Кадры) : 0.343
Размер потока : 1,17 Гбайт (80%)
Библиотека кодирования : XviD 67
Аудио
Идентификатор : 1
Формат : AC-3
Формат/Информация : Audio Coding 3
Коммерческое название : Dolby Digital
Идентификатор кодека : 2000
Продолжительность : 1 ч. 32 м.
Вид битрейта : Постоянный
Битрейт : 448 Кбит/сек
Каналы : 6 каналов
Channel layout : L R C LFE Ls Rs
Частота : 48,0 КГц
Частота кадров : 31,250 кадров/сек (1536 SPF)
Метод сжатия : С потерями
Размер потока : 297 Мбайт (20%)
Выравнивание : Разделение по промежуткам
Продолжительность промежутка : 42 мс. (1,00 видеокадр)
Время предзагрузки промежутка : 500 мс.
Service kind : Complete Main
Скриншоты: Все одноименные релизы в КлубеВремя раздачи: 24/7 (до 10-ти скачавших)
[Профиль] [ЛС]
Показать сообщения:    
Ответить на тему

Текущее время: 29-Фев 11:16

Часовой пояс: UTC ± 0



Вы не можете начинать темы
Вы не можете отвечать на сообщения
Вы не можете редактировать свои сообщения
Вы не можете удалять свои сообщения
Вы не можете голосовать в опросах
Вы не можете прикреплять файлы к сообщениям
Вы не можете скачивать файлы

[  Время выполнения: 0,037 сек  |  MySQL: 0,004 сек (10%) · 3 запр.  |  GZIP выкл  |  Память: 422,29 KB / 1,73 MB / 1,33 MB  |  Лимит: 11 11 11  ]