В паутине страха / Cobweb (2023) WEB-DLRip [H.264] [MVO]

Ответить на тему
 
Автор Сообщение

admin ®

Пол: Не указан

Стаж: 5 месяца

Сообщений: 10110

Создавать темы 30-Янв-2024 17:16

[Цитировать]

В паутине страха / Cobweb (2023) WEB-DLRip - Производство: США / Lionsgate, Media Capital Technologies, Point Grey Pictures
Жанр: ужасы
Режиссер: Сэмюэл Бодин
Продюсер: Эван Голдберг, Рой Ли, Сет Роген
Актеры: Вуди Норман, Лиззи Каплан, Энтони Старр, Клеопатра Коулмэн, Люк Бьюзи, Александра Драгова, Джей Ринкон, Антон Коттас, Стефани Томас, Живко Михайлов
Описание:
Восьмилетнего Питера преследует таинственный, постоянный стук, стук из стены его спальни — стук, который, по утверждению его родителей, всецело в его воображении. По мере того, как страх Питера усиливается, он считает, что его родители могут скрывать ужасную, опасную тайну, и ставит под сомнение их доверие. А для ребенка что может быть страшнее этого?
Возраст: 18+ (зрителям, достигшим 18 лет. запрещено для детей)
Рейтинг MPAA: R (лицам до 17 лет обязательно присутствие взрослого)
Релиз от: Rip by vitolinform
Продолжительность: 01:28:04
Качество видео: WEB-DLRip
Перевод: Многоголосый профессиональный (Jaskier)
Язык озвучки: русский, английский
Субтитры: английские (full, SDH), французские
Видео: AVC/H.264, 1024x428, ~1359 Кbps
Аудио 1: AC3, 6 ch, 384 Кbps | Русский (MVO, Jaskier)
Аудио 2: AC3, 6 ch, 448 Кbps | Английский

MediaInfo:

raw [info]: 1024x428p 1:1 @ 24000/1001 fps (cfr)
x264 [info]: using SAR=1/1
x264 [info]: using cpu capabilities: MMX2 SSE2Fast SSSE3 SSE4.2 AVX FMA3 BMI2 AVX2
x264 [info]: profile High, level 4.1, 4:2:0, 8-bit
x264 [info]: frame I:1201 Avg QP:12.86 size: 47319
x264 [info]: frame P:27291 Avg QP:14.03 size: 17916
x264 [info]: frame B:98212 Avg QP:16.27 size: 3580
x264 [info]: consecutive B-frames: 1.5% 1.2% 4.0% 45.5% 8.5% 25.8% 4.2% 6.7% 1.2% 0.8% 0.7%
x264 [info]: mb I I16..4: 8.2% 78.0% 13.7%
x264 [info]: mb P I16..4: 1.2% 8.6% 0.6% P16..4: 35.1% 29.0% 17.1% 0.0% 0.0% skip: 8.4%
x264 [info]: mb B I16..4: 0.1% 0.2% 0.0% B16..8: 35.0% 11.4% 2.5% direct: 4.4% skip:46.3% L0:46.3% L1:46.1% BI: 7.6%
x264 [info]: 8x8 transform intra:80.8% inter:49.1%
x264 [info]: coded y,uvDC,uvAC intra: 88.3% 81.5% 72.7% inter: 16.7% 15.1% 8.7%
x264 [info]: i16 v,h,dc,p: 40% 15% 23% 22%
x264 [info]: i8 v,h,dc,ddl,ddr,vr,hd,vl,hu: 12% 10% 18% 8% 10% 10% 10% 10% 12%
x264 [info]: i4 v,h,dc,ddl,ddr,vr,hd,vl,hu: 12% 10% 5% 10% 14% 13% 12% 10% 13%
x264 [info]: i8c dc,h,v,p: 57% 20% 15% 8%
x264 [info]: Weighted P-Frames: Y:3.9% UV:1.2%
x264 [info]: ref P L0: 45.9% 5.9% 17.9% 7.2% 5.7% 3.8% 3.8% 1.8% 1.6% 1.2% 1.3% 1.0% 1.0% 0.8% 0.8% 0.5%
x264 [info]: ref B L0: 65.7% 14.1% 6.7% 3.7% 2.3% 1.8% 1.5% 0.9% 0.7% 0.6% 0.5% 0.5% 0.4% 0.3% 0.1%
x264 [info]: ref B L1: 93.2% 6.8%
x264 [info]: kb/s:1358.52
x264 [total]: encoded 126704 frames, 12.05 fps, 1358.52 kb/s
=================================================================
General
Unique ID : 14841475175818747669217941034529609313 (0xB2A5D38AC144E4951607D6230525661)
Complete name : D:\V.pautine.straha.2023.AMZN.WEB-DLRip.AVC.mkv
Format : Matroska
Format version : Version 4
File size : 1.35 GiB
Duration : 1 h 28 min
Overall bit rate : 2 193 kb/s
Frame rate : 23.976 FPS
Movie name : Cobweb (2023) WEB-DLRip AVC _ vitolinform
Encoded date : 2023-08-15 09:36:03 UTC
Writing application : mkvmerge v76.0 ('Celebration') 64-bit
Writing library : libebml v1.4.4 + libmatroska v1.7.1
Attachments : poster.jpg / log.log
Video
ID : 1
Format : AVC
Format/Info : Advanced Video Codec
Format profile : High@L4.1
Format settings : CABAC / 16 Ref Frames
Format settings, CABAC : Yes
Format settings, Reference frames : 16 frames
Codec ID : V_MPEG4/ISO/AVC
Duration : 1 h 28 min
Bit rate : 1 359 kb/s
Width : 1 024 pixels
Height : 428 pixels
Display aspect ratio : 2.40:1
Frame rate mode : Constant
Frame rate : 23.976 (24000/1001) FPS
Color space : YUV
Chroma subsampling : 4:2:0
Bit depth : 8 bits
Scan type : Progressive
Bits/(Pixel*Frame) : 0.129
Stream size : 856 MiB (62%)
Title : В паутине страха / Cobweb (2023)
Writing library : x264 core 164 r3101 b093bbe
Encoding settings : cabac=1 / ref=16 / deblock=1:-3:-3 / analyse=0x3:0x113 / me=umh / subme=10 / psy=1 / psy_rd=1.00:0.05 / mixed_ref=1 / me_range=32 / chroma_me=1 / trellis=2 / 8x8dct=1 / cqm=0 / deadzone=21,11 / fast_pskip=0 / chroma_qp_offset=-3 / threads=12 / lookahead_threads=5 / sliced_threads=0 / nr=0 / decimate=0 / interlaced=0 / bluray_compat=0 / constrained_intra=0 / bframes=10 / b_pyramid=2 / b_adapt=2 / b_bias=0 / direct=1 / weightb=1 / open_gop=0 / weightp=2 / keyint=240 / keyint_min=24 / scenecut=40 / intra_refresh=0 / rc_lookahead=40 / rc=crf / mbtree=0 / crf=17.5 / qcomp=0.60 / qpmin=0 / qpmax=69 / qpstep=4 / vbv_maxrate=50000 / vbv_bufsize=62500 / crf_max=0.0 / nal_hrd=none / filler=0 / ip_ratio=1.40 / pb_ratio=1.40 / aq=1:1.00
Language : English
Default : Yes
Forced : No
Color range : Limited
Color primaries : BT.709
Transfer characteristics : BT.709
Matrix coefficients : BT.709
Audio #1
ID : 2
Format : AC-3
Format/Info : Audio Coding 3
Commercial name : Dolby Digital
Codec ID : A_AC3
Duration : 1 h 28 min
Bit rate mode : Constant
Bit rate : 384 kb/s
Channel(s) : 6 channels
Channel layout : L R C LFE Ls Rs
Sampling rate : 48.0 kHz
Frame rate : 31.250 FPS (1536 SPF)
Compression mode : Lossy
Stream size : 242 MiB (18%)
Title : MVO | Jaskier
Language : Russian
Service kind : Complete Main
Default : Yes
Forced : No
Audio #2
ID : 3
Format : AC-3
Format/Info : Audio Coding 3
Commercial name : Dolby Digital
Codec ID : A_AC3
Duration : 1 h 28 min
Bit rate mode : Constant
Bit rate : 448 kb/s
Channel(s) : 6 channels
Channel layout : L R C LFE Ls Rs
Sampling rate : 48.0 kHz
Frame rate : 31.250 FPS (1536 SPF)
Compression mode : Lossy
Stream size : 282 MiB (20%)
Title : English
Language : English
Service kind : Complete Main
Default : No
Forced : No
Text #1
ID : 4
Format : UTF-8
Codec ID : S_TEXT/UTF8
Codec ID/Info : UTF-8 Plain Text
Duration : 1 h 21 min
Bit rate : 26 b/s
Frame rate : 0.135 FPS
Count of elements : 661
Stream size : 15.6 KiB (0%)
Title : Full
Language : English
Default : No
Forced : No
Text #2
ID : 5
Format : UTF-8
Codec ID : S_TEXT/UTF8
Codec ID/Info : UTF-8 Plain Text
Duration : 1 h 22 min
Bit rate : 38 b/s
Frame rate : 0.207 FPS
Count of elements : 1017
Stream size : 23.4 KiB (0%)
Title : SDH
Language : English
Default : No
Forced : No
Text #3
ID : 6
Format : UTF-8
Codec ID : S_TEXT/UTF8
Codec ID/Info : UTF-8 Plain Text
Duration : 1 h 22 min
Bit rate : 24 b/s
Frame rate : 0.129 FPS
Count of elements : 634
Stream size : 14.5 KiB (0%)
Title : Full
Language : French
Default : No
Forced : No
Скриншоты:
Все одноименные релизы в КлубеВремя раздачи: как минимум до появления первых 3-5 скачавших, 24/7 (мультитрекерная раздача)
[Профиль] [ЛС]
Показать сообщения:    
Ответить на тему

Текущее время: 28-Фев 22:41

Часовой пояс: UTC ± 0



Вы не можете начинать темы
Вы не можете отвечать на сообщения
Вы не можете редактировать свои сообщения
Вы не можете удалять свои сообщения
Вы не можете голосовать в опросах
Вы не можете прикреплять файлы к сообщениям
Вы не можете скачивать файлы

[  Время выполнения: 0,029 сек  |  MySQL: 0,003 сек (11%) · 3 запр.  |  GZIP выкл  |  Память: 422,29 KB / 1,73 MB / 1,35 MB  |  Лимит: 11 10 12  ]