Больше, чем люди / Simulant (2023) BDRip [H.264]

Ответить на тему
 
Автор Сообщение

admin ®

Пол: Не указан

Стаж: 4 месяца 23 дня

Сообщений: 10110

Создавать темы 30-Янв-2024 17:16

[Цитировать]

Больше, чем люди / Simulant (2023) BDRip [H.264]- Производство: Канада / Myriad Pictures Inc., Three Point Capital, Vertical Entertainment, Wango Films
Жанр: фантастика, триллер
Режиссер: Эйприл Маллен
Актеры: Робби Амелл, Джордана Брюстер, Симу Лю, Сэм Уортингтон, Алисия Санс, Мэйко Нгуйен, Маса Лиждек, Кристин Л. Нгуйен, Эммануэль Кабонго, Саманта Гелт, Конрад Коутс
Описание:
В недалеком будущем человечество научилось справляться со страхом потери близких благодаря изобретению особых андроидов, которые могут принимать облик любого человека. Пережив смерть супруга, Фэй решает воспользоваться этим благом цивилизации. Однако в поведении ее андроида что-то не так — это замечает специальный агент по надзору за интеллектом машин. Кажется, искусственный разум выходит за пределы изученной области. Неужели робот действительно жаждет стать человеком и завоевать сердце Фэй? «Больше, чем люди» — научно-фантастический триллер c Джорданой Брюстер и Сэмом Уортингтоном.
Возраст: 16+ (зрителям, достигшим 16 лет)
Релиз от: селезень
Продолжительность: 01:36:00
Качество видео: BDRip
Перевод: Дублированный (Мосфильм-Мастер)
Язык озвучки: Русский
Субтитры: Русские, Английские
Видео: AVC/H.264, 1024x426, 1796 Кbps
Аудио: AC3, 6 ch, 384 Kbps | Русский

Mediainfo:

General
Unique ID : 272291296678468044011601519030801777931 (0xCCD9656C815962F57343960A555FC50B)
Complete name : G:Simulant.2023.DUB.BDRip.x264.seleZen.mkv
Format : Matroska
Format version : Version 4
File size : 1.46 GiB
Duration : 1 h 36 min
Overall bit rate : 2 175 kb/s
Frame rate : 23.976 FPS
Movie name : Simulant.2023.DUB.BDRip.x264.seleZen
Encoded date : 2023-08-10 05:28:41 UTC
Writing application : mkvmerge v78.0 ('Running') 64-bit
Writing library : libebml v1.4.4 + libmatroska v1.7.1
Cover : Yes
Attachments : cover.jpg / small_cover.jpg
Video
ID : 1
Format : AVC
Format/Info : Advanced Video Codec
Format profile : High@L4.1
Format settings : CABAC / 11 Ref Frames
Format settings, CABAC : Yes
Format settings, Reference : 11 frames
Codec ID : V_MPEG4/ISO/AVC
Duration : 1 h 36 min
Bit rate : 1 796 kb/s
Width : 1 024 pixels
Height : 426 pixels
Display aspect ratio : 2.40:1
Frame rate mode : Constant
Frame rate : 23.976 (24000/1001) FPS
Color space : YUV
Chroma subsampling : 4:2:0
Bit depth : 8 bits
Scan type : Progressive
Bits/(Pixel*Frame) : 0.172
Stream size : 1.20 GiB (82%)
Title : -=DoMiNo=-
Writing library : x264 core 164 r3107+58M ae98796 t_mod_New | by -=DoMiNo=- | X86_64]
Encoding settings : cabac=1 / ref=11 / deblock=1:-2:-2 / analyse=0x3:0x133 / me=umh / subme=11 / psy=1 / fade_compensate=0.00 / psy_rd=1.01:0.02 / mixed_ref=1 / me_range=32 / chroma_me=1 / trellis=2 / 8x8dct=1 / cqm=0 / deadzone=21,11 / fast_pskip=0 / chroma_qp_offset=-3 / threads=18 / lookahead_threads=3 / sliced_threads=0 / nr=0 / decimate=0 / interlaced=0 / bluray_compat=0 / constrained_intra=0 / fgo=0 / bframes=14 / b_pyramid=2 / b_adapt=2 / b_bias=0 / direct=3 / weightb=1 / open_gop=0 / weightp=2 / keyint=240 / keyint_min=23 / scenecut=40 / intra_refresh=0 / rc_lookahead=60 / rc=2pass / mbtree=0 / bitrate=1796 / ratetol=1.0 / qcomp=0.70 / qpmin=0:0:0 / qpmax=69:69:69 / qpstep=4 / cplxblur=20.0 / qblur=0.5 / vbv_maxrate=50000 / vbv_bufsize=62500 / nal_hrd=none / filler=0 / ip_ratio=1.22 / pb_ratio=1.30 / aq=3:0.90 / aq-sensitivity=10.00 / aq-factor=1.00:1.00:1.00:1.00 / aq2=0 / aq3=0
Language : English
Default : Yes
Forced : No
Audio
ID : 2
Format : AC-3
Format/Info : Audio Coding 3
Commercial name : Dolby Digital
Codec ID : A_AC3
Duration : 1 h 35 min
Bit rate mode : Constant
Bit rate : 384 kb/s
Channel(s) : 6 channels
Channel layout : L R C LFE Ls Rs
Sampling rate : 48.0 kHz
Frame rate : 31.250 FPS (1536 SPF)
Compression mode : Lossy
Stream size : 263 MiB (18%)
Title : Dub
Language : Russian
Service kind : Complete Main
Default : Yes
Forced : Yes
Text #1
ID : 3
Format : UTF-8
Codec ID : S_TEXT/UTF8
Codec ID/Info : UTF-8 Plain Text
Duration : 1 h 32 min
Bit rate : 82 b/s
Frame rate : 0.195 FPS
Count of elements : 1089
Stream size : 56.4 KiB (0%)
Title : Full
Language : Russian
Default : No
Forced : No
Text #2
ID : 4
Format : UTF-8
Codec ID : S_TEXT/UTF8
Codec ID/Info : UTF-8 Plain Text
Duration : 1 h 32 min
Bit rate : 45 b/s
Frame rate : 0.196 FPS
Count of elements : 1091
Stream size : 30.9 KiB (0%)
Title : English
Language : English
Default : No
Forced : No
Menu
00:00:00.000 : en:Chapter 01
00:10:38.763 : en:Chapter 02
00:19:28.459 : en:Chapter 03
00:30:12.853 : en:Chapter 04
00:39:37.375 : en:Chapter 05
00:50:36.075 : en:Chapter 06
00:59:48.168 : en:Chapter 07
01:10:57.503 : en:Chapter 08
01:21:20.751 : en:Chapter 09
01:31:20.475 : en:Chapter 10
Скриншоты:
Все одноименные релизы в КлубеВремя раздачи: 24/7 (мультитрекер)
[Профиль] [ЛС]
Показать сообщения:    
Ответить на тему

Текущее время: 22-Фев 01:43

Часовой пояс: UTC ± 0



Вы не можете начинать темы
Вы не можете отвечать на сообщения
Вы не можете редактировать свои сообщения
Вы не можете удалять свои сообщения
Вы не можете голосовать в опросах
Вы не можете прикреплять файлы к сообщениям
Вы не можете скачивать файлы

[  Время выполнения: 0,036 сек  |  MySQL: 0,003 сек (8%) · 3 запр.  |  GZIP выкл  |  Память: 421,85 KB / 1,73 MB / 1,34 MB  |  Лимит: 10 13 16  ]