До встречи на Венере / See You on Venus (2023) WEBRip [H.264/1080p]

Ответить на тему
 
Автор Сообщение

admin ®

Пол: Не указан

Стаж: 6 месяца 22 дня

Сообщений: 11520

Создавать темы 30-Янв-2024 17:16

[Цитировать]

До встречи на Венере / See You on Venus (2023) WEBRip [H.264/1080p]«Незабываемое путешествие. Неожиданная любовь»- Производство: США / Pitt Street Productions
Жанр: драма, мелодрама
Режиссер: Хоакин Льямас
Продюсер: Брайан Питт, Николя Картье, Тейлор Конрод
Актеры: Вирджиния Гарднер, Алекс Айоно, Роб Эстес, Исабель Серрано, Бернард Баллен, Эовин Найби Кригер, Алекс Асторт-Фабра, Клаудия Элиза Педрика, Кристина Артако, Лоло Де Ла Калле
Описание:
Миа — всегда в движении и на позитиве. Кайл замкнулся в себе и, кажется, ничто не может вернуть ему вкус к жизни. Они встретились случайно, но именно тогда, когда в этом больше всего нуждались. Мии срочно необходим попутчик для поездки из Америки в Испанию, чтобы найти свою настоящую маму, и она не принимает слово «нет» в качестве ответа. Вместе их ждет незабываемое путешествие в поисках любви и смысла жизни.
Возраст: 18+ (зрителям, достигшим 18 лет. запрещено для детей)
Релиз от: karfagen1975|Soft-Torrent - торрент игры программы фильмы книги скачать
Продолжительность: 01:30:28
Качество видео: WEBRip
Перевод: Дублированный (Мосфильм-Мастер)
Язык озвучки: Русский, английский
Субтитры: Русские, английские
Видео: AVC/H.264, 1920x958, ~5120 Kbps
Аудио 1: AAC, 6 ch, 512 Kbps - Русский (DUB)
Аудио 2: AAC, 6 ch, 512 Kbps - Английский

MediaInfo:

General
Unique ID : 232826170383154580088021009771140417695 (0xAF28B0787109654CDBDC2AB8E883089F)
Complete name : See You on Venus (2023) WEB-DL 1080p.mkv
Format : Matroska
Format version : Version 4
File size : 3.88 GiB
Duration : 1 h 30 min
Overall bit rate : 6 139 kb/s
Encoded date : UTC 2023-08-10 22:03:45
Writing application : mkvmerge v75.0.0 ('Goliath') 64-bit
Writing library : libebml v1.4.4 + libmatroska v1.7.1
Video
ID : 1
Format : AVC
Format/Info : Advanced Video Codec
Format profile : High@L4
Format settings : CABAC / 4 Ref Frames
Format settings, CABAC : Yes
Format settings, Reference frames : 4 frames
Codec ID : V_MPEG4/ISO/AVC
Duration : 1 h 30 min
Bit rate : 5 120 kb/s
Width : 1 920 pixels
Height : 958 pixels
Display aspect ratio : 2.004
Frame rate mode : Constant
Frame rate : 25.000 FPS
Color space : YUV
Chroma subsampling : 4:2:0
Bit depth : 8 bits
Scan type : Progressive
Bits/(Pixel*Frame) : 0.111
Stream size : 3.23 GiB (83%)
Title : До встречи на Венере (2023) WEB-DL 1080p
Writing library : x264 core 152 r2854 e9a5903
Encoding settings : cabac=1 / ref=3 / deblock=1:0:0 / analyse=0x3:0x113 / me=hex / subme=7 / psy=1 / psy_rd=1.00:0.00 / mixed_ref=1 / me_range=16 / chroma_me=1 / trellis=1 / 8x8dct=1 / cqm=0 / deadzone=21,11 / fast_pskip=1 / chroma_qp_offset=-2 / threads=24 / lookahead_threads=4 / sliced_threads=0 / nr=0 / decimate=1 / interlaced=0 / bluray_compat=0 / constrained_intra=0 / bframes=6 / b_pyramid=2 / b_adapt=1 / b_bias=0 / direct=1 / weightb=1 / open_gop=0 / weightp=2 / keyint=50 / keyint_min=26 / scenecut=0 / intra_refresh=0 / rc_lookahead=40 / rc=2pass / mbtree=1 / bitrate=5120 / ratetol=1.0 / qcomp=0.60 / qpmin=0 / qpmax=69 / qpstep=4 / cplxblur=20.0 / qblur=0.5 / vbv_maxrate=7680 / vbv_bufsize=20480 / nal_hrd=none / filler=0 / ip_ratio=1.40 / aq=1:1.00
Language : English
Default : Yes
Forced : No
Audio #1
ID : 2
Format : AAC LC
Format/Info : Advanced Audio Codec Low Complexity
Codec ID : A_AAC-2
Duration : 1 h 30 min
Bit rate : 512 kb/s
Channel(s) : 6 channels
Channel layout : C L R Ls Rs LFE
Sampling rate : 48.0 kHz
Frame rate : 46.875 FPS (1024 SPF)
Compression mode : Lossy
Stream size : 331 MiB (8%)
Title : DUB (Мосфильм-Мастер)
Language : Russian
Default : No
Forced : No
Audio #2
ID : 3
Format : AAC LC
Format/Info : Advanced Audio Codec Low Complexity
Codec ID : A_AAC-2
Duration : 1 h 30 min
Bit rate : 512 kb/s
Channel(s) : 6 channels
Channel layout : C L R Ls Rs LFE
Sampling rate : 48.0 kHz
Frame rate : 46.875 FPS (1024 SPF)
Compression mode : Lossy
Stream size : 331 MiB (8%)
Language : English
Default : No
Forced : No
Text #1
ID : 4
Format : UTF-8
Codec ID : S_TEXT/UTF8
Codec ID/Info : UTF-8 Plain Text
Duration : 1 h 24 min
Bit rate : 74 b/s
Count of elements : 1029
Stream size : 46.1 KiB (0%)
Language : Russian
Default : No
Forced : No
Text #2
ID : 5
Format : UTF-8
Codec ID : S_TEXT/UTF8
Codec ID/Info : UTF-8 Plain Text
Duration : 1 h 24 min
Bit rate : 49 b/s
Count of elements : 1061
Stream size : 30.5 KiB (0%)
Language : English
Default : No
Forced : No
Скриншоты:
Все одноименные релизы в КлубеВремя раздачи: 24/7 (круглосуточно) (минимум до появления первых 3-5 скачавших)
[Профиль] [ЛС]
Показать сообщения:    
Ответить на тему

Текущее время: 20-Апр 19:41

Часовой пояс: UTC ± 0



Вы не можете начинать темы
Вы не можете отвечать на сообщения
Вы не можете редактировать свои сообщения
Вы не можете удалять свои сообщения
Вы не можете голосовать в опросах
Вы не можете прикреплять файлы к сообщениям
Вы не можете скачивать файлы

[  Время выполнения: 0,044 сек  |  MySQL: 0,004 сек (8%) · 3 запр.  |  GZIP выкл  |  Память: 422,29 KB / 1,74 MB / 1,36 MB  |  Лимит: 5 5 7  ]