Боксер / Bokser (2022) WEB-DL [H.264/1080p]

Ответить на тему
 
Автор Сообщение

admin ®

Пол: Не указан

Стаж: 7 месяца 24 дня

Сообщений: 11520

Создавать темы 30-Янв-2024 17:15

[Цитировать]

Боксер / Bokser (2022) WEB-DL [H.264/1080p]- Производство: Казахстан / Sataifilm
Жанр: драма, спорт, биография
Режиссер: Акан Сатаев
Актеры: Смадиар Сабыров, Игорь Ермашов
Описание:
Серик Сапиев — настоящая звезда бокса. В родном Казахстане он много раз побеждал самых опытных бойцов. Настает момент главного боя в его жизни: Серик выходит на ринг Олимпиады в Пекине. Его противник — таиландский боец Манус Бунжумнонг. И Серик неожиданно проигрывает. А дальше все рассыпается как карточный домик: коллеги отворачиваются, в личной жизни наступает темная полоса. Сможет ли Серик найти в себе силы, чтобы преодолеть испытания и пойти дальше или же навсегда бросит бокс?
Возраст: 12+
Продолжительность: 01:40:46
Качество видео: WEB-DL (1080p)
Перевод: Не требуется (Русский)
Субтитры: Отсутствуют
Видео: AVC/H.264, 1920x800, ~6000 Kbps
Аудио #1: AC3, 6 ch, 448 Kbps - Русский
Аудио #2: E-AC3, 6 ch, 448 Kbps - Русский

MediaInfo:

Общее
Уникальный идентификатор : 180837163444133824355743545348550934130 (0x880BF8873BF699C587F326C38E71BE72)
Полное имя : D:\NNM\Боксер\Bokser.2022.WEB-DL.1080p.ELEKTRI4KA.UNIONGANG.mkv
Формат : Matroska
Версия формата : Version 4
Размер файла : 4,78 Гбайт
Продолжительность : 1 ч. 40 м.
Общий поток : 6 790 Кбит/сек
Название фильма : Bokser.2022.WEB-DL.1080p.ELEKTRI4KA.UNIONGANG.
Дата кодирования : UTC 2023-08-10 16:31:25
Программа кодирования : mkvmerge v8.3.0 ('Over the Horizon') 64bit
Библиотека кодирования : libebml v1.3.1 + libmatroska v1.4.2
Видео
Идентификатор : 1
Формат : AVC
Формат/Информация : Advanced Video Codec
Профиль формата : High@L4
Настройки формата : CABAC / 5 Ref Frames
Параметр CABAC формата : Да
Параметр RefFrames формата : 5 кадров
Идентификатор кодека : V_MPEG4/ISO/AVC
Продолжительность : 1 ч. 40 м.
Битрейт : 6 000 Кбит/сек
Ширина : 1 920 пикселей
Высота : 800 пикселей
Соотношение сторон : 2,40:1
Режим частоты кадров : Постоянный
Частота кадров : 24,000 кадра/сек
Цветовое пространство : YUV
Субдискретизация насыщенности : 4:2:0
Битовая глубина : 8 бит
Тип развёртки : Прогрессивная
Бит/(Пиксели*Кадры) : 0.163
Размер потока : 4,15 Гбайт (87%)
Библиотека кодирования : x264 core 157
Настройки программы : cabac=1 / ref=5 / deblock=1:0:0 / analyse=0x3:0x133 / me=umh / subme=10 / psy=1 / psy_rd=1.00:0.00 / mixed_ref=1 / me_range=24 / chroma_me=1 / trellis=2 / 8x8dct=1 / cqm=0 / deadzone=21,11 / fast_pskip=1 / chroma_qp_offset=-2 / threads=25 / lookahead_threads=4 / sliced_threads=0 / nr=0 / decimate=1 / interlaced=0 / bluray_compat=0 / stitchable=1 / constrained_intra=0 / bframes=8 / b_pyramid=2 / b_adapt=2 / b_bias=0 / direct=3 / weightb=1 / open_gop=0 / weightp=2 / keyint=250 / keyint_min=24 / scenecut=40 / intra_refresh=0 / rc_lookahead=60 / rc=2pass / mbtree=1 / bitrate=6000 / ratetol=1.0 / qcomp=0.60 / qpmin=0 / qpmax=69 / qpstep=4 / cplxblur=20.0 / qblur=0.5 / vbv_maxrate=6600 / vbv_bufsize=12000 / nal_hrd=none / filler=0 / ip_ratio=1.40 / aq=1:1.00
Default : Да
Forced : Нет
Аудио #1
Идентификатор : 2
Формат : AC-3
Формат/Информация : Audio Coding 3
Коммерческое название : Dolby Digital
Идентификатор кодека : A_AC3
Продолжительность : 1 ч. 40 м.
Вид битрейта : Постоянный
Битрейт : 448 Кбит/сек
Каналы : 6 каналов
Channel layout : L R C LFE Ls Rs
Частота : 48,0 КГц
Частота кадров : 31,250 кадров/сек (1536 SPF)
Метод сжатия : С потерями
Размер потока : 323 Мбайт (7%)
Заголовок : Original AC3 (KP HD)
Язык : Russian
Service kind : Complete Main
Default : Да
Forced : Да
Аудио #2
Идентификатор : 3
Формат : E-AC-3
Формат/Информация : Enhanced AC-3
Коммерческое название : Dolby Digital Plus
Идентификатор кодека : A_EAC3
Продолжительность : 1 ч. 40 м.
Вид битрейта : Постоянный
Битрейт : 448 Кбит/сек
Каналы : 6 каналов
Channel layout : L R C LFE Ls Rs
Частота : 48,0 КГц
Частота кадров : 31,250 кадров/сек (1536 SPF)
Метод сжатия : С потерями
Размер потока : 323 Мбайт (7%)
Заголовок : Original EAC3 (KP HD)
Язык : Russian
Service kind : Complete Main
Default : Нет
Forced : Нет
Скриншоты: Все одноименные релизы в КлубеВремя раздачи: 24/7 (до 10-ти скачавших)
[Профиль] [ЛС]
Показать сообщения:    
Ответить на тему

Текущее время: 23-Май 05:17

Часовой пояс: UTC ± 0



Вы не можете начинать темы
Вы не можете отвечать на сообщения
Вы не можете редактировать свои сообщения
Вы не можете удалять свои сообщения
Вы не можете голосовать в опросах
Вы не можете прикреплять файлы к сообщениям
Вы не можете скачивать файлы

[  Время выполнения: 0,034 сек  |  MySQL: 0,004 сек (10%) · 3 запр.  |  GZIP выкл  |  Память: 422,49 KB / 1,72 MB / 1,32 MB  |  Лимит: 23 17 18  ]