Боксер / Bokser (2022) WEB-DLRip

Ответить на тему
 
Автор Сообщение

admin ®

Пол: Не указан

Стаж: 5 месяца

Сообщений: 10110

Создавать темы 30-Янв-2024 17:15

[Цитировать]

Боксер / Bokser (2022) WEB-DLRip- Производство: Казахстан / Sataifilm
Жанр: драма, спорт, биография
Режиссер: Акан Сатаев
Актеры: Смадиар Сабыров, Игорь Ермашов
Описание:
Серик Сапиев — настоящая звезда бокса. В родном Казахстане он много раз побеждал самых опытных бойцов. Настает момент главного боя в его жизни: Серик выходит на ринг Олимпиады в Пекине. Его противник — таиландский боец Манус Бунжумнонг. И Серик неожиданно проигрывает. А дальше все рассыпается как карточный домик: коллеги отворачиваются, в личной жизни наступает темная полоса. Сможет ли Серик найти в себе силы, чтобы преодолеть испытания и пойти дальше или же навсегда бросит бокс?
Возраст: 12+
Продолжительность: 01:40:46
Качество видео: WEB-DLRip
Перевод: Не требуется (Русский)
Субтитры: Отсутствуют
Видео: XviD, 720x304, ~1620 Kbps
Аудио: AC-3, 6 ch, 448 Kbps

MediaInfo:

Общее
Полное имя : D:\NNM\Боксер\Bokser.2022.WEB-DLRip.ELEKTRI4KA.UNIONGANG.avi
Формат : AVI
Формат/Информация : Audio Video Interleave
Размер файла : 1,46 Гбайт
Продолжительность : 1 ч. 40 м.
Общий поток : 2 078 Кбит/сек
Программа кодирования : VirtualDubMod 1.5.10.3 | www.virtualdub-fr.org || (build 2550/release)
Библиотека кодирования : VirtualDubMod build 2550/release
Видео
Идентификатор : 0
Формат : MPEG-4 Visual
Профиль формата : Advanced Simple@L5
Настройки формата : BVOP1 / Custom Matrix
Параметр BVOP формата : 1
Параметр QPel формата : Нет
Параметр GMC формата : Без точки перехода
Параметр матрицы формата : Выборочная
Идентификатор кодека : XVID
Идентификатор кодека/Подсказка : XviD
Продолжительность : 1 ч. 40 м.
Битрейт : 1 620 Кбит/сек
Ширина : 720 пикселей
Высота : 304 пикселя
Соотношение сторон : 2,35:1
Частота кадров : 24,000 кадра/сек
Цветовое пространство : YUV
Субдискретизация насыщенности : 4:2:0
Битовая глубина : 8 бит
Тип развёртки : Прогрессивная
Метод сжатия : С потерями
Бит/(Пиксели*Кадры) : 0.308
Размер потока : 1,14 Гбайт (78%)
Библиотека кодирования : XviD 67
Аудио
Идентификатор : 1
Формат : AC-3
Формат/Информация : Audio Coding 3
Коммерческое название : Dolby Digital
Идентификатор кодека : 2000
Продолжительность : 1 ч. 40 м.
Вид битрейта : Постоянный
Битрейт : 448 Кбит/сек
Каналы : 6 каналов
Channel layout : L R C LFE Ls Rs
Частота : 48,0 КГц
Частота кадров : 31,250 кадров/сек (1536 SPF)
Метод сжатия : С потерями
Размер потока : 323 Мбайт (22%)
Выравнивание : Разделение по промежуткам
Продолжительность промежутка : 42 мс. (1,00 видеокадр)
Время предзагрузки промежутка : 500 мс.
Service kind : Complete Main
Скриншоты: Все одноименные релизы в КлубеВремя раздачи: 24/7 (до 10-ти скачавших)
[Профиль] [ЛС]
Показать сообщения:    
Ответить на тему

Текущее время: 28-Фев 22:23

Часовой пояс: UTC ± 0



Вы не можете начинать темы
Вы не можете отвечать на сообщения
Вы не можете редактировать свои сообщения
Вы не можете удалять свои сообщения
Вы не можете голосовать в опросах
Вы не можете прикреплять файлы к сообщениям
Вы не можете скачивать файлы

[  Время выполнения: 0,026 сек  |  MySQL: 0,002 сек (9%) · 3 запр.  |  GZIP выкл  |  Память: 422,29 KB / 1,71 MB / 1,32 MB  |  Лимит: 11 14 16  ]