Коллектив / The Collective (2023) WEB-DL [H.264/1080p] [MVO]

Ответить на тему
 
Автор Сообщение

admin ®

Пол: Не указан

Стаж: 5 месяца

Сообщений: 10110

Создавать темы 30-Янв-2024 17:13

[Цитировать]

Коллектив / The Collective (2023) WEB-DL [H.264/1080p] - Производство: США / Yale Productions, Dawn's Light
Жанр: боевик
Режиссер: Том ДеНуччи
Актеры: Руби Роуз, Дон Джонсон, Лукас Тилл, Пол Бен-Виктор, Мерседес Кестнер-Варнадо, Тайриз Гибсон, Джон Фиоре, Джулия Терранова, Дэвид Мэрчент, Левон Панек и др.
Описание:
Однажды таинственное сообщество наемных убийц под названием “Коллектив” собирается раскрыть сеть незаконной торговли людьми, которая поддерживается влиятельными миллионерами. Недавно в ряды наемников поступил новичок по имени Сэм, на которого и возложили эту непростую миссию. На протяжении долгого времени сеть пользуется слабостью людей и диктует собственные правила на глобальном уровне. При всем этом, избегая наказания.
Релиз от: JNS82
Продолжительность: 01:26:34
Качество видео: WEB-DL
Перевод: Профессиональный многоголосый (HDRezka Studio)
Язык озвучки: русский, английский
Субтитры: русские (forced), английские
Видео: AVC/H.264, 1920x1080 (16:9), ~8900 Kbps
Аудио 1: AC3, 6 ch, 448 Kbps - русский
Аудио 2: AC3, 6 ch, 448 Kbps - русский (18+)
Аудио 3: E-AC3, 6 ch, 640 Kbps - английский

MediaInfo:

General
Unique ID : 31068858658310203194808581921409624313 (0x175FA4FF723078AF962F82055E1468F9)
Complete name : E:TorrentsThe.Collective.2023.1080p.AMZN_от New-Team_JNS82.mkv
Format : Matroska
Format version : Version 4
File size : 6.31 GiB
Duration : 1 h 26 min
Overall bit rate : 10.4 Mb/s
Movie name : The.Collective.2023.1080p.AMZN_от New-Team_JNS82
Encoded date : UTC 2023-08-07 06:25:59
Writing application : mkvmerge v59.0.0 ('Shining Star') 64-bit
Writing library : libebml v1.4.2 + libmatroska v1.6.4
Video
ID : 1
Format : AVC
Format/Info : Advanced Video Codec
Format profile : High@L4
Format settings : CABAC / 4 Ref Frames
Format settings, CABAC : Yes
Format settings, Reference : 4 frames
Codec ID : V_MPEG4/ISO/AVC
Duration : 1 h 26 min
Bit rate mode : Constant
Bit rate : 8 898 kb/s
Nominal bit rate : 10 000 kb/s
Width : 1 920 pixels
Height : 1 080 pixels
Display aspect ratio : 16:9
Frame rate mode : Constant
Frame rate : 23.976 (24000/1001) FPS
Color space : YUV
Chroma subsampling : 4:2:0
Bit depth : 8 bits
Scan type : Progressive
Bits/(Pixel*Frame) : 0.179
Stream size : 5.38 GiB (85%)
Title : NT
Language : English
Default : Yes
Forced : No
Color range : Limited
Color primaries : BT.709
Transfer characteristics : BT.709
Matrix coefficients : BT.709
Audio #1
ID : 2
Format : AC-3
Format/Info : Audio Coding 3
Commercial name : Dolby Digital
Codec ID : A_AC3
Duration : 1 h 26 min
Bit rate mode : Constant
Bit rate : 448 kb/s
Channel(s) : 6 channels
Channel layout : L R C LFE Ls Rs
Sampling rate : 48.0 kHz
Frame rate : 31.250 FPS (1536 SPF)
Compression mode : Lossy
Stream size : 277 MiB (4%)
Title : MVO - HDRezka Studio
Language : Russian
Service kind : Complete Main
Default : Yes
Forced : No
Audio #2
ID : 3
Format : AC-3
Format/Info : Audio Coding 3
Commercial name : Dolby Digital
Codec ID : A_AC3
Duration : 1 h 26 min
Bit rate mode : Constant
Bit rate : 448 kb/s
Channel(s) : 6 channels
Channel layout : L R C LFE Ls Rs
Sampling rate : 48.0 kHz
Frame rate : 31.250 FPS (1536 SPF)
Compression mode : Lossy
Stream size : 277 MiB (4%)
Title : MVO - HDRezka Studio | 18 +
Language : Russian
Service kind : Complete Main
Default : No
Forced : No
Audio #3
ID : 4
Format : E-AC-3
Format/Info : Enhanced AC-3
Commercial name : Dolby Digital Plus
Codec ID : A_EAC3
Duration : 1 h 26 min
Bit rate mode : Constant
Bit rate : 640 kb/s
Channel(s) : 6 channels
Channel layout : L R C LFE Ls Rs
Sampling rate : 48.0 kHz
Frame rate : 31.250 FPS (1536 SPF)
Compression mode : Lossy
Stream size : 396 MiB (6%)
Title : Original
Language : English
Service kind : Complete Main
Default : No
Forced : No
Text #1
ID : 5
Format : UTF-8
Codec ID : S_TEXT/UTF8
Codec ID/Info : UTF-8 Plain Text
Duration : 51 min 26 s
Bit rate : 3 b/s
Count of elements : 25
Stream size : 1.21 KiB (0%)
Title : [forced [HDRezka]]
Language : Russian
Default : Yes
Forced : No
Text #2
ID : 6
Format : UTF-8
Codec ID : S_TEXT/UTF8
Codec ID/Info : UTF-8 Plain Text
Duration : 1 h 23 min
Bit rate : 44 b/s
Count of elements : 1104
Stream size : 27.2 KiB (0%)
Title : [full]
Language : English
Default : No
Forced : No
Text #3
ID : 7
Format : UTF-8
Codec ID : S_TEXT/UTF8
Codec ID/Info : UTF-8 Plain Text
Duration : 1 h 25 min
Bit rate : 62 b/s
Count of elements : 1579
Stream size : 39.3 KiB (0%)
Title : [SDH]
Language : English
Default : No
Forced : No
Скриншоты:
Все одноименные релизы в КлубеВремя раздачи: мультитрекерная раздача
[Профиль] [ЛС]
Показать сообщения:    
Ответить на тему

Текущее время: 28-Фев 21:35

Часовой пояс: UTC ± 0



Вы не можете начинать темы
Вы не можете отвечать на сообщения
Вы не можете редактировать свои сообщения
Вы не можете удалять свои сообщения
Вы не можете голосовать в опросах
Вы не можете прикреплять файлы к сообщениям
Вы не можете скачивать файлы

[  Время выполнения: 0,033 сек  |  MySQL: 0,005 сек (14%) · 5 запр.  |  GZIP выкл  |  Память: 422,29 KB / 1,73 MB / 1,34 MB  |  Лимит: 16 15 14  ]