Не в моём вкусе / Les gouts et les couleurs / Not My Type (2022) WEB-DL [H.264/1080p]

Ответить на тему
 
Автор Сообщение

admin ®

Пол: Не указан

Стаж: 4 месяца 27 дня

Сообщений: 10110

Создавать темы 30-Янв-2024 17:13

[Цитировать]

Не в моём вкусе / Les gouts et les couleurs / Not My Type (2022) WEB-DL [H.264/1080p]- Производство: Франция / Ciné+, Mandarin Films, Canal+
Жанр: комедия
Режиссер: Мишель Леклерк
Актеры: Ребекка Мардер, Феликс Моати, Жюдит Шемла, Филипп Реббо, Эй Айдара, Артюс, Байа Касми, Франсуа Морель, Элоиз Жанжо, Сара Лепикар
Описание:
Начинающей певице Марсии выпадает уникальный шанс: с ней хочет записать альбом ее кумир Дареджан, экстравагантная звезда и рок-икона 70-х, увидевшая в скромной девушке яркий талант. Однако перед самым выпуском альбома Дареджан внезапно умирает. Марсия оказывается перед необходимостью получить согласие на релиз у ее наследника, уверенного в себе красавца Энтони, который терпеть не мог свою тетку и все ее творчество. Ситуация осложняется, когда Марсия сразу после знакомства ссорится с новым вершителем ее музыкальной судьбы.
Возраст: 16+
Продолжительность: 01:47:48
Качество видео: WEB-DL (1080p
Перевод: Дублированный (CPI Films)
Субтитры: Отсутствуют
Видео: AVC/H.264, 1920x804, ~5000 Kbps
Аудио #1: AC3, 6 ch, 384 Kbps - Русский
Аудио #2: E-AC3, 6 ch, 384 Kbps - Русский

MediaInfo:

Общее
Уникальный идентификатор : 213679205207561280692475371408843281808 (0xA0C11E33F37AA426AAC9E43BBACB1590)
Полное имя : D:\NNM\Не в моём вкусе\Ne.v.moem.vkuse.2022.WEB-DL.1080p.ELEKTRI4KA.UNIONGANG.mkv
Формат : Matroska
Версия формата : Version 4
Размер файла : 4,30 Гбайт
Продолжительность : 1 ч. 47 м.
Общий поток : 5 717 Кбит/сек
Название фильма : Ne.v.moem.vkuse.2022.WEB-DL.1080p.ELEKTRI4KA.UNIONGANG
Дата кодирования : UTC 2023-08-08 18:19:22
Программа кодирования : mkvmerge v8.3.0 ('Over the Horizon') 64bit
Библиотека кодирования : libebml v1.3.1 + libmatroska v1.4.2
Видео
Идентификатор : 1
Формат : AVC
Формат/Информация : Advanced Video Codec
Профиль формата : High@L4
Настройки формата : CABAC / 3 Ref Frames
Параметр CABAC формата : Да
Параметр RefFrames формата : 3 кадра
Идентификатор кодека : V_MPEG4/ISO/AVC
Продолжительность : 1 ч. 47 м.
Битрейт : 5 000 Кбит/сек
Ширина : 1 920 пикселей
Высота : 804 пикселя
Соотношение сторон : 2,40:1
Режим частоты кадров : Постоянный
Частота кадров : 25,000 кадров/сек
Цветовое пространство : YUV
Субдискретизация насыщенности : 4:2:0
Битовая глубина : 8 бит
Тип развёртки : Прогрессивная
Бит/(Пиксели*Кадры) : 0.130
Размер потока : 3,72 Гбайт (87%)
Библиотека кодирования : x264 core 164 r3095 baee400
Настройки программы : cabac=1 / ref=4 / deblock=1:-1:-1 / analyse=0x3:0x133 / me=umh / subme=9 / psy=1 / psy_rd=0.40:1.00 / mixed_ref=1 / me_range=24 / chroma_me=1 / trellis=0 / 8x8dct=1 / cqm=0 / deadzone=21,11 / fast_pskip=1 / chroma_qp_offset=-2 / threads=3 / lookahead_threads=1 / sliced_threads=0 / nr=0 / decimate=1 / interlaced=0 / bluray_compat=0 / stitchable=1 / constrained_intra=0 / bframes=8 / b_pyramid=1 / b_adapt=0 / b_bias=0 / direct=3 / weightb=1 / open_gop=0 / weightp=2 / keyint=75 / keyint_min=38 / scenecut=0 / intra_refresh=0 / rc_lookahead=40 / rc=2pass / mbtree=1 / bitrate=5000 / ratetol=1.0 / qcomp=0.80 / qpmin=1 / qpmax=69 / qpstep=4 / cplxblur=20.0 / qblur=0.5 / vbv_maxrate=7500 / vbv_bufsize=10000 / nal_hrd=none / filler=0 / ip_ratio=1.40 / aq=1:1.00
Default : Да
Forced : Нет
Аудио #1
Идентификатор : 2
Формат : AC-3
Формат/Информация : Audio Coding 3
Коммерческое название : Dolby Digital
Идентификатор кодека : A_AC3
Продолжительность : 1 ч. 47 м.
Вид битрейта : Постоянный
Битрейт : 384 Кбит/сек
Каналы : 6 каналов
Channel layout : L R C LFE Ls Rs
Частота : 48,0 КГц
Частота кадров : 31,250 кадров/сек (1536 SPF)
Метод сжатия : С потерями
Размер потока : 296 Мбайт (7%)
Заголовок : DUB AC3 (CPI Films)
Язык : Russian
Service kind : Complete Main
Default : Да
Forced : Да
Аудио #2
Идентификатор : 3
Формат : E-AC-3
Формат/Информация : Enhanced AC-3
Коммерческое название : Dolby Digital Plus
Идентификатор кодека : A_EAC3
Продолжительность : 1 ч. 47 м.
Вид битрейта : Постоянный
Битрейт : 384 Кбит/сек
Каналы : 6 каналов
Channel layout : L R C LFE Ls Rs
Частота : 48,0 КГц
Частота кадров : 31,250 кадров/сек (1536 SPF)
Метод сжатия : С потерями
Размер потока : 296 Мбайт (7%)
Заголовок : DUB EAC3 (CPI Films)
Язык : Russian
Service kind : Complete Main
Default : Нет
Forced : Нет
Скриншоты: Все одноименные релизы в КлубеВремя раздачи: 24/7 (до 10-ти скачавших)
[Профиль] [ЛС]
Показать сообщения:    
Ответить на тему

Текущее время: 25-Фев 18:06

Часовой пояс: UTC ± 0



Вы не можете начинать темы
Вы не можете отвечать на сообщения
Вы не можете редактировать свои сообщения
Вы не можете удалять свои сообщения
Вы не можете голосовать в опросах
Вы не можете прикреплять файлы к сообщениям
Вы не можете скачивать файлы

[  Время выполнения: 0,042 сек  |  MySQL: 0,004 сек (9%) · 3 запр.  |  GZIP выкл  |  Память: 422,29 KB / 1,74 MB / 1,36 MB  |  Лимит: 10 10 9  ]