Потомок / Gwigongja (The Childe) (2023) WEB-DL [H.264/1080p] [DVO]

Ответить на тему
 
Автор Сообщение

admin ®

Пол: Не указан

Стаж: 4 месяца 23 дня

Сообщений: 10110

Создавать темы 30-Янв-2024 17:13

[Цитировать]

Потомок / Gwigongja (The Childe) (2023) WEB-DL [H.264/1080p]- Производство: Южная Корея / Next Entertainment World, Goldmoon Film
Жанр: боевик, криминал
Режиссер: Пак Хун-джон
Актеры: Ким Сон-хо, Кан Тхэ-джу, Кан У Ким, Ко А-ра, Квон Хёк-хён, Джастин Джон Харви
Описание:
Филиппинский парень, рожденный от отца-корейца и матери-филиппинки, мечтает стать боксером. Он отправляется в Южную Корею, чтобы найти бросившего его отца, но в одночасье он становится мишенью для многих людей, преследующих свои цели.
Продолжительность: 01:57:47
Качество видео: WEB-DL (1080p)
Перевод: Любительский двухголосый (DeadSno & den904) 18 +
Субтитры: Английские, корейские
Видео: AVC/H.264, 1920x1080, ~4500 Kbps
Аудио #1: AC3, 2 ch, 192 Kbps - Русский
Аудио #2: AAC, 2 ch, 128 Kbps - Корейский

MediaInfo:

Общее
Уникальный идентификатор : 296427768712892348362524685588497243512 (0xDF01E95F5A1981347E65DA18DA0D1D78)
Полное имя : D:\NNM\Потомок\The.Childe.2023.1080p.WEB-DL_JNS82.mkv
Формат : Matroska
Версия формата : Version 4
Размер файла : 6,85 Гбайт
Продолжительность : 1 ч. 57 м.
Общий поток : 8 322 Кбит/сек
Название фильма : The.Childe.2023.1080p.WEB-DL_JNS82
Дата кодирования : UTC 2023-08-08 13:53:21
Программа кодирования : mkvmerge v59.0.0 ('Shining Star') 64-bit
Библиотека кодирования : libebml v1.4.2 + libmatroska v1.6.4
Видео
Идентификатор : 1
Формат : AVC
Формат/Информация : Advanced Video Codec
Профиль формата : Main@L4
Настройки формата : CABAC / 2 Ref Frames
Параметр CABAC формата : Да
Параметр RefFrames формата : 2 кадра
Параметр GOP формата : M=1, N=30
Идентификатор кодека : V_MPEG4/ISO/AVC
Продолжительность : 1 ч. 57 м.
Вид битрейта : Постоянный
Битрейт : 8 000 Кбит/сек
Ширина : 1 920 пикселей
Высота : 1 080 пикселей
Соотношение сторон : 16:9
Режим частоты кадров : Постоянный
Частота кадров : 23,976 (24000/1001) кадра/сек
Цветовое пространство : YUV
Субдискретизация насыщенности : 4:2:0
Битовая глубина : 8 бит
Тип развёртки : Прогрессивная
Бит/(Пиксели*Кадры) : 0.161
Размер потока : 6,58 Гбайт (96%)
Язык : Korean
Default : Да
Forced : Нет
Аудио #1
Идентификатор : 2
Формат : AC-3
Формат/Информация : Audio Coding 3
Коммерческое название : Dolby Digital
Идентификатор кодека : A_AC3
Продолжительность : 1 ч. 57 м.
Вид битрейта : Постоянный
Битрейт : 192 Кбит/сек
Каналы : 2 канала
Channel layout : L R
Частота : 48,0 КГц
Частота кадров : 31,250 кадров/сек (1536 SPF)
Метод сжатия : С потерями
Размер потока : 162 Мбайт (2%)
Заголовок : DVO - DeadSno & den904 | 18 +
Язык : Russian
Service kind : Complete Main
Default : Да
Forced : Нет
Аудио #2
Идентификатор : 3
Формат : AAC LC
Формат/Информация : Advanced Audio Codec Low Complexity
Идентификатор кодека : A_AAC-2
Продолжительность : 1 ч. 57 м.
Битрейт : 128 Кбит/сек
Каналы : 2 канала
Channel layout : L R
Частота : 48,0 КГц
Частота кадров : 46,875 кадров/сек (1024 SPF)
Метод сжатия : С потерями
Размер потока : 108 Мбайт (2%)
Заголовок : Original
Язык : Korean
Default : Нет
Forced : Нет
Текст
Идентификатор : 4
Формат : UTF-8
Идентификатор кодека : S_TEXT/UTF8
Идентификатор кодека/Информация : UTF-8 Plain Text
Продолжительность : 1 ч. 54 м.
Битрейт : 34 бит/сек
Count of elements : 1044
Размер потока : 28,9 Кбайт (0%)
Заголовок : [full]
Язык : English
Default : Нет
Forced : Нет
Скриншоты: Все одноименные релизы в КлубеВремя раздачи: 24/7 (до 10-ти скачавших)
[Профиль] [ЛС]
Показать сообщения:    
Ответить на тему

Текущее время: 22-Фев 01:15

Часовой пояс: UTC ± 0



Вы не можете начинать темы
Вы не можете отвечать на сообщения
Вы не можете редактировать свои сообщения
Вы не можете удалять свои сообщения
Вы не можете голосовать в опросах
Вы не можете прикреплять файлы к сообщениям
Вы не можете скачивать файлы

[  Время выполнения: 0,037 сек  |  MySQL: 0,004 сек (11%) · 5 запр.  |  GZIP выкл  |  Память: 421,85 KB / 1,74 MB / 1,34 MB  |  Лимит: 19 19 19  ]