Голова-жестянка (2023) WEB-DL [H.264/1080p]

Ответить на тему
 
Автор Сообщение

admin ®

Пол: Не указан

Стаж: 5 месяца

Сообщений: 10110

Создавать темы 30-Янв-2024 17:12

[Цитировать]

Голова-жестянка (2023) WEB-DL [H.264/1080p]- Производство: Россия / QS FILMS, Киномир, Segezha Group
Жанр: драма, комедия
Режиссер: Иван Капитонов
Продюсер: Иван Капитонов, Святослав Подгаевский, Георгий Шабанов
Актеры: Варвара Володина, Олег Чугунов, Сергей Гилев, Татьяна Яковенко, Анна Попова, Даниил Вершинин, Наталья Кудряшова, Владимир Селезнев, Юрий Ицков, Дима Мальков
Описание:
16-летняя Женя, которую все зовут Жесть, сполна оправдывает свое прозвище: жестит и разрушает отношения со всеми вокруг. Такой она стала после сотрясения мозга и травмы ноги. Теперь она хромает и видит мир далеко не в розовом цвете. В своей травме Женя винит лучшего (а теперь бывшего) друга Приходько и направляет на него весь свой гнев и искрометный цинизм. Но, кроме Приходько, достается всем: родителям, старшему брату, подругам и одноклассникам. Все меняется после знакомства с руководителем кружка робототехники Святославом, который становится наставником Жени. Взаимодействуя с роботами, она учится общению с людьми, начинает снова радоваться жизни, а главное — вновь обретает старого друга.
Возраст: 12+ (зрителям, достигшим 12 лет)
Продолжительность: 01:55:27
Качество видео: WEB-DL
Язык озвучки: русский
Субтитры: отсутствуют
Видео: AVC/H.264, 1920x804, ~5000 Kbps
Аудио: E-AC3, 6 ch, 384 Kbps - русский

MediaInfo:

Общее
Уникальный идентификатор : 29519886193372931288895830751296651898 (0x163552C24FF9E2BB62A1980FBA48827A)
Полное имя : D:Golova.zhestyanka.2023.WEB-DL.1080p.mkv
Формат : Matroska
Версия формата : Version 4
Размер файла : 4,33 Гбайт
Продолжительность : 1 ч. 55 м.
Общий поток : 5 376 Кбит/сек
Название фильма : Golova.zhestyanka.2023.WEB-DL.1080p
Дата кодирования : UTC 2023-08-04 16:04:57
Программа кодирования : mkvmerge v78.0 ('Running') 64-bit
Библиотека кодирования : libebml v1.4.4 + libmatroska v1.7.1
Attachments : poster.jpg
Видео
Идентификатор : 1
Формат : AVC
Формат/Информация : Advanced Video Codec
Профиль формата : High@L4
Настройки формата : CABAC / 3 Ref Frames
Параметр CABAC формата : Да
Параметр RefFrames формата : 3 кадра
Идентификатор кодека : V_MPEG4/ISO/AVC
Продолжительность : 1 ч. 55 м.
Битрейт : 5 000 Кбит/сек
Ширина : 1 920 пикселей
Высота : 804 пикселя
Соотношение сторон : 2,40:1
Режим частоты кадров : Постоянный
Частота кадров : 24,000 кадра/сек
Цветовое пространство : YUV
Субдискретизация насыщенности : 4:2:0
Битовая глубина : 8 бит
Тип развёртки : Прогрессивная
Бит/(Пиксели*Кадры) : 0.135
Размер потока : 4,02 Гбайт (93%)
Библиотека кодирования : x264 core 161 r3048 b86ae3c
Настройки программы : cabac=1 / ref=4 / deblock=1:1:1 / analyse=0x3:0x133 / me=umh / subme=9 / psy=1 / psy_rd=0.40:1.00 / mixed_ref=1 / me_range=24 / chroma_me=1 / trellis=0 / 8x8dct=1 / cqm=0 / deadzone=21,11 / fast_pskip=1 / chroma_qp_offset=-2 / threads=25 / lookahead_threads=2 / sliced_threads=0 / nr=0 / decimate=1 / interlaced=0 / bluray_compat=0 / constrained_intra=0 / bframes=8 / b_pyramid=1 / b_adapt=1 / b_bias=0 / direct=3 / weightb=1 / open_gop=0 / weightp=2 / keyint=72 / keyint_min=37 / scenecut=0 / intra_refresh=0 / rc_lookahead=30 / rc=2pass / mbtree=1 / bitrate=5000 / ratetol=1.0 / qcomp=0.80 / qpmin=1 / qpmax=69 / qpstep=4 / cplxblur=20.0 / qblur=0.5 / vbv_maxrate=7500 / vbv_bufsize=10000 / nal_hrd=none / filler=0 / ip_ratio=1.40 / aq=1:1.00
Default : Да
Forced : Нет
Цветовой диапазон : Limited
Основные цвета : BT.709
Коэффициенты матрицы : BT.709
Аудио
Идентификатор : 2
Формат : E-AC-3
Формат/Информация : Enhanced AC-3
Коммерческое название : Dolby Digital Plus
Идентификатор кодека : A_EAC3
Продолжительность : 1 ч. 55 м.
Вид битрейта : Постоянный
Битрейт : 384 Кбит/сек
Каналы : 6 каналов
Channel layout : L R C LFE Ls Rs
Частота : 48,0 КГц
Частота кадров : 31,250 кадров/сек (1536 SPF)
Метод сжатия : С потерями
Размер потока : 317 Мбайт (7%)
Заголовок : [Original | 5.1 E-AC3 Audio]
Язык : Russian
Service kind : Complete Main
Default : Да
Forced : Нет
Скриншоты:
Все одноименные релизы в КлубеВремя раздачи: (мультитрекер)
[Профиль] [ЛС]
Показать сообщения:    
Ответить на тему

Текущее время: 28-Фев 22:11

Часовой пояс: UTC ± 0



Вы не можете начинать темы
Вы не можете отвечать на сообщения
Вы не можете редактировать свои сообщения
Вы не можете удалять свои сообщения
Вы не можете голосовать в опросах
Вы не можете прикреплять файлы к сообщениям
Вы не можете скачивать файлы

[  Время выполнения: 0,030 сек  |  MySQL: 0,002 сек (8%) · 3 запр.  |  GZIP выкл  |  Память: 422,29 KB / 1,74 MB / 1,34 MB  |  Лимит: 18 17 17  ]