Хитман / Герои и злодеи / Hitmen (2023) WEB-DLRip [H.264] [MVO]

Ответить на тему
 
Автор Сообщение

admin ®

Пол: Не указан

Стаж: 6 месяца 22 дня

Сообщений: 11520

Создавать темы 30-Янв-2024 17:12

[Цитировать]

Герои и злодеи / Hitmen (2023) WEB-DLRip - Производство: Великобритания / Bee Holder Productions, Saints and Savages
Жанр: боевик
Режиссер: Саввас Д. Майкл
Продюсер: Thomas Anthony, Стив Ли Джонс, Джон Павлакос
Актеры: Эрик Робертс, Чарли Роус, Жан Андерсон, Марко Леонарди, Вэс Блэквуд, Челси Ли Маклауд, Адам Дикон, Жорж Сен-Пьер, Даниэль Кальтаджироне, Бентли Калу
Описание:
Майкл Хиро, богатый бизнесмен и глава крупной корпорации, потерял своего внука в результате жестокого убийства. Он не может простить убийцу и решает отомстить за своего внука. Он предлагает миллион долларов за головы убийц своего внука, привлекая к выполнению задачи известных наемных убийц.
Релиз от: Rip by vitolinform
Продолжительность: 01:48:54
Качество видео: WEB-DLRip
Перевод: Многоголосый профессиональный (HDRezka Studio), многоголосый профессиональный (HDRezka Studio | 18+)
Язык озвучки: русский, английский
Субтитры: русские (forced)
Видео: AVC/H.264, 1024x426, ~2016 Kbps
Аудио 1: AC3, 6 ch, 448 Кbps | Русский (MVO, HDRezka Studio)
Аудио 2: AC3, 6 ch, 448 Кbps | Русский (MVO, HDRezka Studio | 18+)
Аудио 3: AC3, 6 ch, 448 Кbps | Английский

MediaInfo:

raw [info]: 1024x426p 1:1 @ 10000000/416667 fps (cfr)
x264 [info]: using SAR=1/1
x264 [info]: using cpu capabilities: MMX2 SSE2Fast SSSE3 SSE4.2 AVX FMA3 BMI2 AVX2
x264 [info]: profile High, level 4.1, 4:2:0, 8-bit
x264 [info]: frame I:971 Avg QP:14.60 size: 61490
x264 [info]: frame P:32139 Avg QP:15.98 size: 25266
x264 [info]: frame B:123715 Avg QP:18.40 size: 6263
x264 [info]: consecutive B-frames: 1.5% 1.8% 5.2% 22.9% 15.8% 34.8% 6.6% 6.7% 1.9% 1.2% 1.5%
x264 [info]: mb I I16..4: 7.9% 77.7% 14.4%
x264 [info]: mb P I16..4: 0.6% 13.9% 0.9% P16..4: 32.0% 29.6% 17.8% 0.0% 0.0% skip: 5.2%
x264 [info]: mb B I16..4: 0.1% 0.7% 0.1% B16..8: 37.7% 15.1% 4.7% direct: 4.6% skip:37.0% L0:45.3% L1:43.8% BI:10.8%
x264 [info]: 8x8 transform intra:87.3% inter:53.4%
x264 [info]: coded y,uvDC,uvAC intra: 94.5% 92.8% 85.6% inter: 23.3% 23.3% 12.7%
x264 [info]: i16 v,h,dc,p: 31% 17% 16% 36%
x264 [info]: i8 v,h,dc,ddl,ddr,vr,hd,vl,hu: 11% 9% 15% 9% 11% 11% 11% 11% 12%
x264 [info]: i4 v,h,dc,ddl,ddr,vr,hd,vl,hu: 14% 9% 4% 9% 15% 14% 13% 11% 12%
x264 [info]: i8c dc,h,v,p: 51% 20% 16% 13%
x264 [info]: Weighted P-Frames: Y:4.2% UV:2.4%
x264 [info]: ref P L0: 47.4% 9.8% 16.3% 5.4% 5.0% 3.0% 3.3% 1.5% 1.7% 1.1% 1.3% 0.9% 1.1% 0.7% 0.9% 0.5%
x264 [info]: ref B L0: 66.9% 13.0% 6.1% 3.2% 2.2% 1.9% 1.5% 1.1% 0.9% 0.8% 0.6% 0.6% 0.5% 0.4% 0.1%
x264 [info]: ref B L1: 93.1% 6.9%
x264 [info]: kb/s:2015.82
x264 [total]: encoded 156825 frames, 9.50 fps, 2015.83 kb/s
=====================================================================
General
Unique ID : 74343123569405881226932488719917910182 (0x37EDF6FC183E96095613ADFBE3AC08A6)
Complete name : D:\Geroi.i.zlodei.2023.WEB-DLRip.AVC.mkv
Format : Matroska
Format version : Version 4
File size : 2.56 GiB
Duration : 1 h 48 min
Overall bit rate : 3 362 kb/s
Frame rate : 24.000 FPS
Movie name : Hitmen (2023) WEB-DLRip AVC _ vitolinform
Encoded date : 2023-08-10 07:14:03 UTC
Writing application : mkvmerge v76.0 ('Celebration') 64-bit
Writing library : libebml v1.4.4 + libmatroska v1.7.1
Attachments : poster.jpg / log.log
Video
ID : 1
Format : AVC
Format/Info : Advanced Video Codec
Format profile : High@L4.1
Format settings : CABAC / 16 Ref Frames
Format settings, CABAC : Yes
Format settings, Reference frames : 16 frames
Codec ID : V_MPEG4/ISO/AVC
Duration : 1 h 48 min
Bit rate : 2 016 kb/s
Width : 1 024 pixels
Height : 426 pixels
Display aspect ratio : 2.40:1
Frame rate mode : Constant
Frame rate : 24.000 FPS
Color space : YUV
Chroma subsampling : 4:2:0
Bit depth : 8 bits
Scan type : Progressive
Bits/(Pixel*Frame) : 0.193
Stream size : 1.53 GiB (60%)
Title : Герои и злодеи / Hitmen (2023)
Writing library : x264 core 164 r3101 b093bbe
Encoding settings : cabac=1 / ref=16 / deblock=1:-3:-3 / analyse=0x3:0x113 / me=umh / subme=10 / psy=1 / psy_rd=1.00:0.05 / mixed_ref=1 / me_range=32 / chroma_me=1 / trellis=2 / 8x8dct=1 / cqm=0 / deadzone=21,11 / fast_pskip=0 / chroma_qp_offset=-3 / threads=12 / lookahead_threads=5 / sliced_threads=0 / nr=0 / decimate=0 / interlaced=0 / bluray_compat=0 / constrained_intra=0 / bframes=10 / b_pyramid=2 / b_adapt=2 / b_bias=0 / direct=1 / weightb=1 / open_gop=0 / weightp=2 / keyint=240 / keyint_min=24 / scenecut=40 / intra_refresh=0 / rc_lookahead=40 / rc=crf / mbtree=0 / crf=17.3 / qcomp=0.60 / qpmin=0 / qpmax=69 / qpstep=4 / vbv_maxrate=50000 / vbv_bufsize=62500 / crf_max=0.0 / nal_hrd=none / filler=0 / ip_ratio=1.40 / pb_ratio=1.40 / aq=1:1.00
Language : English
Default : Yes
Forced : No
Color range : Limited
Color primaries : BT.709
Transfer characteristics : BT.709
Matrix coefficients : BT.709
Audio #1
ID : 2
Format : AC-3
Format/Info : Audio Coding 3
Commercial name : Dolby Digital
Codec ID : A_AC3
Duration : 1 h 48 min
Bit rate mode : Constant
Bit rate : 448 kb/s
Channel(s) : 6 channels
Channel layout : L R C LFE Ls Rs
Sampling rate : 48.0 kHz
Frame rate : 31.250 FPS (1536 SPF)
Compression mode : Lossy
Stream size : 349 MiB (13%)
Title : MVO | HDRezka Studio
Language : Russian
Service kind : Complete Main
Default : Yes
Forced : No
Audio #2
ID : 3
Format : AC-3
Format/Info : Audio Coding 3
Commercial name : Dolby Digital
Codec ID : A_AC3
Duration : 1 h 48 min
Bit rate mode : Constant
Bit rate : 448 kb/s
Channel(s) : 6 channels
Channel layout : L R C LFE Ls Rs
Sampling rate : 48.0 kHz
Frame rate : 31.250 FPS (1536 SPF)
Compression mode : Lossy
Stream size : 349 MiB (13%)
Title : MVO | HDRezka Studio | 18+
Language : Russian
Service kind : Complete Main
Default : No
Forced : No
Audio #3
ID : 4
Format : AC-3
Format/Info : Audio Coding 3
Commercial name : Dolby Digital
Codec ID : A_AC3
Duration : 1 h 48 min
Bit rate mode : Constant
Bit rate : 448 kb/s
Channel(s) : 6 channels
Channel layout : L R C LFE Ls Rs
Sampling rate : 48.0 kHz
Frame rate : 31.250 FPS (1536 SPF)
Compression mode : Lossy
Stream size : 349 MiB (13%)
Title : English
Language : English
Service kind : Complete Main
Default : No
Forced : No
Text
ID : 5
Format : UTF-8
Codec ID : S_TEXT/UTF8
Codec ID/Info : UTF-8 Plain Text
Duration : 1 h 43 min
Bit rate : 1 b/s
Frame rate : 0.006 FPS
Count of elements : 35
Stream size : 1.42 KiB (0%)
Title : Forced
Language : Russian
Default : Yes
Forced : Yes
Скриншоты:
Все одноименные релизы в КлубеВремя раздачи: как минимум до появления первых 3-5 скачавших, 24/7 (мультитрекерная раздача)
[Профиль] [ЛС]
Показать сообщения:    
Ответить на тему

Текущее время: 20-Апр 19:07

Часовой пояс: UTC ± 0



Вы не можете начинать темы
Вы не можете отвечать на сообщения
Вы не можете редактировать свои сообщения
Вы не можете удалять свои сообщения
Вы не можете голосовать в опросах
Вы не можете прикреплять файлы к сообщениям
Вы не можете скачивать файлы

[  Время выполнения: 0,039 сек  |  MySQL: 0,003 сек (8%) · 3 запр.  |  GZIP выкл  |  Память: 422,29 KB / 1,75 MB / 1,37 MB  |  Лимит: 11 12 13  ]