Хитман / Герои и злодеи / Hitmen (2023) WEB-DL [H.264/1080p] [MVO]

Ответить на тему
 
Автор Сообщение

admin ®

Пол: Не указан

Стаж: 4 месяца 27 дня

Сообщений: 10110

Создавать темы 30-Янв-2024 17:12

[Цитировать]

Герои и злодеи / Hitmen (2023) WEB-DL [H.264/1080p]- Производство: Великобритания / Bee Holder ProductionsSaints and Savages
Жанр: боевик
Режиссер: Саввас Д. Майкл
Актеры: Эрик Робертс, Чарли Роус, Марко Леонарди, Вэс Блэквуд, Жорж Сен-Пьер, Жан Андерсон, Дженни Миллер, Бентли Калу, Луис Бребин-Платт, Даниэль Кальтаджироне
Описание:
Майкл Хиро всем сердцем желает отомстить за убийство своего внука. Он предлагает в награду миллион долларов за головы убийц своего внука, привлекая к выполнению задачи известных наемных убийц.
Дата мировой премьеры: 5 июня 2023
Продолжительность: 01:48:54
Качество видео: WEB-DL (1080p)
Перевод: Многоголосый профессиональный (HDRezka Studio)
Субтитры: Русские
Видео: AVC/H.264, 1920x800, ~7537 Kbps
Аудио #1: AC3, 6 ch, 448 Kbps - Русский - (HDRezka Studio)
Аудио #2: AC3, 6 ch, 448 Kbps - Русский - (HDRezka Studio) 18 +
Аудио #3: E-AC3, 6 ch, 640 Kbps - Английский

MediaInfo:

Общее
Уникальный идентификатор : 168767255071305739078568370557597158913 (0x7EF76419B727BF5FDF2A68BE53B68E01)
Полное имя : D:\NNM\Герои и злодеи\Hitmen.2023.1080p.WEB-DL_от New-Team_JNS82.mkv
Формат : Matroska
Версия формата : Version 4
Размер файла : 6,90 Гбайт
Продолжительность : 1 ч. 48 м.
Общий поток : 9 076 Кбит/сек
Название фильма : Hitmen.2023.1080p.WEB-DL_от New-Team_JNS82
Дата кодирования : UTC 2023-08-10 07:06:31
Программа кодирования : mkvmerge v59.0.0 ('Shining Star') 64-bit
Библиотека кодирования : libebml v1.4.2 + libmatroska v1.6.4
Обложка : Yes
Attachments : cover.png
Видео
Идентификатор : 1
Формат : AVC
Формат/Информация : Advanced Video Codec
Профиль формата : High@L4
Настройки формата : CABAC / 4 Ref Frames
Параметр CABAC формата : Да
Параметр RefFrames формата : 4 кадра
Идентификатор кодека : V_MPEG4/ISO/AVC
Продолжительность : 1 ч. 48 м.
Вид битрейта : Постоянный
Битрейт : 7 537 Кбит/сек
Номинальный битрейт : 10 000 Кбит/сек
Ширина : 1 920 пикселей
Высота : 800 пикселей
Соотношение сторон : 2,40:1
Режим частоты кадров : Постоянный
Частота кадров : 24,000 кадра/сек
Цветовое пространство : YUV
Субдискретизация насыщенности : 4:2:0
Битовая глубина : 8 бит
Тип развёртки : Прогрессивная
Бит/(Пиксели*Кадры) : 0.204
Размер потока : 5,73 Гбайт (83%)
Default : Да
Forced : Нет
Цветовой диапазон : Limited
Основные цвета : BT.709
Характеристики трансфера : BT.709
Коэффициенты матрицы : BT.709
Аудио #1
Идентификатор : 2
Формат : AC-3
Формат/Информация : Audio Coding 3
Коммерческое название : Dolby Digital
Идентификатор кодека : A_AC3
Продолжительность : 1 ч. 48 м.
Вид битрейта : Постоянный
Битрейт : 448 Кбит/сек
Каналы : 6 каналов
Channel layout : L R C LFE Ls Rs
Частота : 48,0 КГц
Частота кадров : 31,250 кадров/сек (1536 SPF)
Метод сжатия : С потерями
Размер потока : 349 Мбайт (5%)
Заголовок : MVO - HDRezka Studio
Язык : Russian
Service kind : Complete Main
Default : Да
Forced : Нет
Аудио #2
Идентификатор : 3
Формат : AC-3
Формат/Информация : Audio Coding 3
Коммерческое название : Dolby Digital
Идентификатор кодека : A_AC3
Продолжительность : 1 ч. 48 м.
Вид битрейта : Постоянный
Битрейт : 448 Кбит/сек
Каналы : 6 каналов
Channel layout : L R C LFE Ls Rs
Частота : 48,0 КГц
Частота кадров : 31,250 кадров/сек (1536 SPF)
Метод сжатия : С потерями
Размер потока : 349 Мбайт (5%)
Заголовок : MVO - HDRezka Studio | 18 +
Язык : Russian
Service kind : Complete Main
Default : Нет
Forced : Нет
Аудио #3
Идентификатор : 4
Формат : E-AC-3
Формат/Информация : Enhanced AC-3
Коммерческое название : Dolby Digital Plus
Идентификатор кодека : A_EAC3
Продолжительность : 1 ч. 48 м.
Вид битрейта : Постоянный
Битрейт : 640 Кбит/сек
Каналы : 6 каналов
Channel layout : L R C LFE Ls Rs
Частота : 48,0 КГц
Частота кадров : 31,250 кадров/сек (1536 SPF)
Метод сжатия : С потерями
Размер потока : 499 Мбайт (7%)
Заголовок : Original
Язык : English
Service kind : Complete Main
Default : Нет
Forced : Нет
Текст
Идентификатор : 5
Формат : UTF-8
Идентификатор кодека : S_TEXT/UTF8
Идентификатор кодека/Информация : UTF-8 Plain Text
Продолжительность : 1 ч. 43 м.
Битрейт : 1 бит/сек
Count of elements : 35
Размер потока : 1,42 Кбайт (0%)
Заголовок : [forced [HDRezka]]
Язык : Russian
Default : Да
Forced : Нет
Скриншоты: Все одноименные релизы в КлубеВремя раздачи: 24/7 (до 10-ти скачавших)
[Профиль] [ЛС]
Показать сообщения:    
Ответить на тему

Текущее время: 25-Фев 21:37

Часовой пояс: UTC ± 0



Вы не можете начинать темы
Вы не можете отвечать на сообщения
Вы не можете редактировать свои сообщения
Вы не можете удалять свои сообщения
Вы не можете голосовать в опросах
Вы не можете прикреплять файлы к сообщениям
Вы не можете скачивать файлы

[  Время выполнения: 0,040 сек  |  MySQL: 0,004 сек (9%) · 3 запр.  |  GZIP выкл  |  Память: 422,29 KB / 1,75 MB / 1,37 MB  |  Лимит: 12 14 14  ]