Больше, чем люди / Simulant (2023) BDRip [H.264/1080p]

Ответить на тему
 
Автор Сообщение

admin ®

Пол: Не указан

Стаж: 4 месяца 27 дня

Сообщений: 10110

Создавать темы 30-Янв-2024 17:12

[Цитировать]

Больше, чем люди / Simulant (2023) BDRip [H.264/1080p]- Производство: Канада / Myriad Pictures Inc., Three Point Capital, Vertical Entertainment, Wango Films
Жанр: фантастика, триллер
Режиссер: Эйприл Маллен
Актеры: Робби Амелл, Джордана Брюстер, Симу Лю, Сэм Уортингтон, Алисия Санс, Мэйко Нгуйен, Маса Лиждек, Кристин Л. Нгуйен, Эммануэль Кабонго, Саманта Гелт, Конрад Коутс
Описание:
В недалеком будущем человечество научилось справляться со страхом потери близких благодаря изобретению особых андроидов, которые могут принимать облик любого человека. Пережив смерть супруга, Фэй решает воспользоваться этим благом цивилизации. Однако в поведении ее андроида что-то не так — это замечает специальный агент по надзору за интеллектом машин. Кажется, искусственный разум выходит за пределы изученной области. Неужели робот действительно жаждет стать человеком и завоевать сердце Фэй? «Больше, чем люди» — научно-фантастический триллер c Джорданой Брюстер и Сэмом Уортингтоном.
Возраст: 16+ (зрителям, достигшим 16 лет)
Релиз от: селезень
Продолжительность: 01:36:00
Качество видео: BDRip
Перевод: Дублированный (Мосфильм-Мастер)
Язык озвучки: Русский, Английский
Субтитры: Русские, Английские
Видео: AVC/H.264, 1920x800, 14.3 Mbps
Аудио 1: AC3, 6 ch, 384 Kbps | Русский
Аудио 2: E-AC3, 6 ch, 384 Kbps | Русский
Аудио 3: АС3, 6 ch, 640 Kbps | Английский

Mediainfo:

General
Unique ID : 295784444609270390803956171580088187029 (0xDE86030B98A15DCCA895C1CE5BE6F895)
Complete name : F:VideoFSimulant.2023.BDRip.1080p.seleZen.mkv
Format : Matroska
Format version : Version 4
File size : 10.5 GiB
Duration : 1 h 36 min
Overall bit rate : 15.7 Mb/s
Frame rate : 23.976 FPS
Movie name : Simulant (2023) from seleZen
Encoded date : 2023-08-09 21:58:15 UTC
Writing application : mkvmerge v77.0 ('Elemental') 64-bit
Writing library : libebml v1.4.4 + libmatroska v1.7.1
Video
ID : 1
Format : AVC
Format/Info : Advanced Video Codec
Format profile : High@L4.1
Format settings : CABAC / 5 Ref Frames
Format settings, CABAC : Yes
Format settings, Reference : 5 frames
Codec ID : V_MPEG4/ISO/AVC
Duration : 1 h 36 min
Bit rate : 14.3 Mb/s
Width : 1 920 pixels
Height : 800 pixels
Display aspect ratio : 2.40:1
Frame rate mode : Constant
Frame rate : 23.976 (24000/1001) FPS
Color space : YUV
Chroma subsampling : 4:2:0
Bit depth : 8 bits
Scan type : Progressive
Bits/(Pixel*Frame) : 0.387
Stream size : 9.56 GiB (91%)
Title : SPHD
Writing library : x264 core 164 r3094+13 7816202 [Mod by Patman]
Encoding settings : cabac=1 / ref=5 / deblock=1:-3:-3 / analyse=0x3:0x113 / me=umh / subme=11 / psy=1 / psy_rd=1.05:0.00 / mixed_ref=1 / me_range=32 / chroma_me=1 / trellis=2 / 8x8dct=1 / cqm=0 / deadzone=21,11 / fast_pskip=0 / chroma_qp_offset=-2 / threads=12 / lookahead_threads=2 / sliced_threads=0 / nr=0 / decimate=0 / interlaced=0 / bluray_compat=0 / constrained_intra=0 / bframes=9 / b_pyramid=2 / b_adapt=2 / b_bias=0 / direct=3 / weightb=1 / open_gop=0 / weightp=2 / keyint=250 / keyint_min=23 / scenecut=40 / intra_refresh=0 / rc_lookahead=60 / rc=crf / mbtree=0 / crf=15.6 / qcomp=0.60 / qpmin=0 / qpmax=69 / qpstep=4 / vbv_maxrate=62500 / vbv_bufsize=78125 / crf_max=0.0 / nal_hrd=none / filler=0 / ip_ratio=1.30 / pb_ratio=1.20 / aq=3:0.80
Language : English
Default : Yes
Forced : No
Color range : Limited
Color primaries : BT.709
Transfer characteristics : BT.709
Matrix coefficients : BT.709
Audio #1
ID : 2
Format : AC-3
Format/Info : Audio Coding 3
Commercial name : Dolby Digital
Codec ID : A_AC3
Duration : 1 h 35 min
Bit rate mode : Constant
Bit rate : 384 kb/s
Channel(s) : 6 channels
Channel layout : L R C LFE Ls Rs
Sampling rate : 48.0 kHz
Frame rate : 31.250 FPS (1536 SPF)
Compression mode : Lossy
Stream size : 263 MiB (2%)
Title : Dub
Language : Russian
Service kind : Complete Main
Default : Yes
Forced : No
Audio #2
ID : 3
Format : E-AC-3
Format/Info : Enhanced AC-3
Commercial name : Dolby Digital Plus
Codec ID : A_EAC3
Duration : 1 h 35 min
Bit rate mode : Constant
Bit rate : 384 kb/s
Channel(s) : 6 channels
Channel layout : L R C LFE Ls Rs
Sampling rate : 48.0 kHz
Frame rate : 31.250 FPS (1536 SPF)
Compression mode : Lossy
Stream size : 263 MiB (2%)
Title : Dub
Language : Russian
Service kind : Complete Main
Default : No
Forced : No
Audio #3
ID : 4
Format : AC-3
Format/Info : Audio Coding 3
Commercial name : Dolby Digital
Codec ID : A_AC3
Duration : 1 h 36 min
Bit rate mode : Constant
Bit rate : 640 kb/s
Channel(s) : 6 channels
Channel layout : L R C LFE Ls Rs
Sampling rate : 48.0 kHz
Frame rate : 31.250 FPS (1536 SPF)
Compression mode : Lossy
Stream size : 439 MiB (4%)
Title : Original
Language : English
Service kind : Complete Main
Default : No
Forced : No
Text #1
ID : 5
Format : UTF-8
Codec ID : S_TEXT/UTF8
Codec ID/Info : UTF-8 Plain Text
Duration : 1 h 32 min
Bit rate : 82 b/s
Frame rate : 0.195 FPS
Count of elements : 1089
Stream size : 56.4 KiB (0%)
Title : Full
Language : Russian
Default : No
Forced : No
Text #2
ID : 6
Format : UTF-8
Codec ID : S_TEXT/UTF8
Codec ID/Info : UTF-8 Plain Text
Duration : 1 h 32 min
Bit rate : 45 b/s
Frame rate : 0.196 FPS
Count of elements : 1091
Stream size : 30.9 KiB (0%)
Title : English
Language : English
Default : No
Forced : No
Menu
00:00:00.000 : en:Chapter 01
00:10:38.763 : en:Chapter 02
00:19:28.459 : en:Chapter 03
00:30:12.853 : en:Chapter 04
00:39:37.375 : en:Chapter 05
00:50:36.075 : en:Chapter 06
00:59:48.168 : en:Chapter 07
01:10:57.503 : en:Chapter 08
01:21:20.751 : en:Chapter 09
01:31:20.475 : en:Chapter 10
Скриншоты:
Все одноименные релизы в КлубеВремя раздачи: 24/7 (мультитрекер)
[Профиль] [ЛС]
Показать сообщения:    
Ответить на тему

Текущее время: 25-Фев 18:53

Часовой пояс: UTC ± 0



Вы не можете начинать темы
Вы не можете отвечать на сообщения
Вы не можете редактировать свои сообщения
Вы не можете удалять свои сообщения
Вы не можете голосовать в опросах
Вы не можете прикреплять файлы к сообщениям
Вы не можете скачивать файлы

[  Время выполнения: 0,038 сек  |  MySQL: 0,002 сек (6%) · 3 запр.  |  GZIP выкл  |  Память: 422,29 KB / 1,74 MB / 1,34 MB  |  Лимит: 21 20 18  ]