Все ненавидят Йохана / Alle hater Johan (2022) WEBRip [H.264/1080p] [MVO] [AD]

Ответить на тему
 
Автор Сообщение

admin ®

Пол: Не указан

Стаж: 6 месяца 19 дня

Сообщений: 11520

Создавать темы 30-Янв-2024 15:44

[Цитировать]

Все ненавидят Йохана / Alle hater Johan (2022) WEBRip [H.264/1080p]- Производство: Норвегия / Film in Norway, Nordisk Film Production AS
Жанр: комедия
Режиссер: Халлвар Витсё
Актеры: Пол Сверре Валхейм Хаген, Ингрид Больсё Бердаль, Ине Ф. Янсен, Пол-Оттар Хага, Джон Ф. Брунгот, Тронд-Ове Скрэдаль, Ингунн Беате Эйен, Ви Вимолмал, Херман Сабадо, Raymond Balstad
Описание:
Йохан — последний представитель отважного семейства Гранде, чья страсть к пиротехнике настраивает против себя жителей местной общины. Он рано потерял родителей, сумел прослыть «белой вороной» и с юных лет безответно влюблен в соседскую девушку. Отвергнутый родной деревней Йохан покоряет Америку и спустя годы возвращается на родину, чтобы в очередной раз просить руки непреклонной гордячки…
Возраст: 16+ (зрителям, достигшим 16 лет)
Дата мировой премьеры: 25 марта 2022
Дата премьеры в России: 25 августа 2022

Продолжительность: 01:27:42
Качество видео: WEBRip
Перевод: Многоголосый любительский (AlphaProject)
Субтитры: Отсутствуют
Реклама: Присутствует баннер.
Видео: AVC/H.264, 1918x720, ~6064 Kbps
Аудио: AC3, 2 ch, 384 Kbps

MediaInfo:

Общее
Полное имя : D:\NNM\Все ненавидят Йохана\Alle.hater.Johan.2022.WEBRip.1080p.mkv
Формат : Matroska
Версия формата : Version 2
Размер файла : 4,03 Гбайт
Продолжительность : 1 ч. 27 м.
Режим общего битрейта : Постоянный
Общий поток : 6 579 Кбит/сек
Программа кодирования : libmatroska 1.4.1
Библиотека кодирования : SolveigMM Matroska Muxer Version 1.0.1904.23
Видео
Идентификатор : 1
Формат : AVC
Формат/Информация : Advanced Video Codec
Профиль формата : High@L4.1
Настройки формата : CABAC / 4 Ref Frames
Параметр CABAC формата : Да
Параметр RefFrames формата : 4 кадра
Идентификатор кодека : V_MPEG4/ISO/AVC
Продолжительность : 1 ч. 27 м.
Вид битрейта : Постоянный
Битрейт : 6 064 Кбит/сек
Номинальный битрейт : 7 000 Кбит/сек
Ширина : 1 918 пикселей
Высота : 720 пикселей
Соотношение сторон : 2,664
Режим частоты кадров : Постоянный
Частота кадров : 23,976 (24000/1001) кадра/сек
Стандарт вещания : Component
Цветовое пространство : YUV
Субдискретизация насыщенности : 4:2:0
Битовая глубина : 8 бит
Тип развёртки : Прогрессивная
Бит/(Пиксели*Кадры) : 0.183
Размер потока : 3,71 Гбайт (92%)
Default : Нет
Forced : Нет
Цветовой диапазон : Limited
Основные цвета : BT.709
Характеристики трансфера : BT.709
Коэффициенты матрицы : BT.709
Аудио
Идентификатор : 2
Формат : AC-3
Формат/Информация : Audio Coding 3
Коммерческое название : Dolby Digital
Идентификатор кодека : A_AC3
Продолжительность : 1 ч. 27 м.
Вид битрейта : Постоянный
Битрейт : 384 Кбит/сек
Каналы : 2 канала
Channel layout : L R
Частота : 48,0 КГц
Частота кадров : 31,250 кадров/сек (1536 SPF)
Метод сжатия : С потерями
Размер потока : 241 Мбайт (6%)
Язык : Russian
Service kind : Complete Main
Default : Нет
Forced : Нет
Скриншоты: Все одноименные релизы в КлубеВремя раздачи: 24/7 (до 10-ти скачавших)
[Профиль] [ЛС]
Показать сообщения:    
Ответить на тему

Текущее время: 17-Апр 14:49

Часовой пояс: UTC ± 0



Вы не можете начинать темы
Вы не можете отвечать на сообщения
Вы не можете редактировать свои сообщения
Вы не можете удалять свои сообщения
Вы не можете голосовать в опросах
Вы не можете прикреплять файлы к сообщениям
Вы не можете скачивать файлы

[  Время выполнения: 0,039 сек  |  MySQL: 0,003 сек (8%) · 3 запр.  |  GZIP выкл  |  Память: 422,29 KB / 1,74 MB / 1,34 MB  |  Лимит: 7 7 8  ]