Кошмар по соседству / Nightmare Neighborhood Moms (2022) HDTVRip [H.264/720p-LQ] [MVO, AD]

Ответить на тему
 
Автор Сообщение

admin ®

Пол: Не указан

Стаж: 7 месяца 26 дня

Сообщений: 11520

Создавать темы 30-Янв-2024 15:19

[Цитировать]

Кошмар по соседству / Nightmare Neighborhood Moms (2022) HDTVRip [H.264/720p-LQ] - Производство: США / Storyteller Studios
Жанр: триллер
Режиссер: Melissa Cassera
Актеры: Gina Simms, Эйприл Хейл, Summer Madison, Джонатан Горман, Коли Кампани, Sarah Jirgal, Brey Noelle, John Zimmermann, Пол Ван Скотт, Jennifer Gasca
Описание:
Шарлотт переезжает в пригород со своей дочерью. Только спустя какое-то время она узнает, что в этом районе произошло убийство. Могла ли она знать, что за этим стоит ее соседка Бонни?
Дата мировой премьеры: 8 апреля 2022
Продолжительность: 01:24:32
Качество видео: HDTVRip
Перевод: Многоголосый, закадровый (AlphaProject)
Язык озвучки: Русский
Субтитры: Отсутствуют
Реклама: Присутствует реклама аудио, видео, баннер
Видео: AVC/H.264, 1280x720 (16:9), ~4485 Kbps
Аудио: AC3, 2 ch, 384 Kbps

MediaInfo:

Общее
Уникальный идентификатор : 36838449032040055840044778635197276850 (0x1BB6D3C4017261FFFD529E82F0F5E2B2)
Полное имя : F:\Nightmare.Neighborhood.Moms.2022.mkv
Формат : Matroska
Версия формата : Version 4
Размер файла : 2,88 Гбайт
Продолжительность : 1 ч. 24 м.
Режим общего битрейта : Постоянный
Общий поток : 4 871 Кбит/сек
Дата кодирования : UTC 2022-05-09 04:26:21
Программа кодирования : mkvmerge v26.0.0 ('In The Game') 32-bit
Библиотека кодирования : libebml v1.3.6 + libmatroska v1.4.9 / Lavf58.76.100
Видео
Идентификатор : 1
Формат : AVC
Формат/Информация : Advanced Video Codec
Профиль формата : High@L4.1
Настройки формата : CABAC / 4 Ref Frames
Параметр CABAC формата : Да
Параметр RefFrames формата : 4 кадра
Идентификатор кодека : V_MPEG4/ISO/AVC
Продолжительность : 1 ч. 24 м.
Вид битрейта : Постоянный
Битрейт : 4 485 Кбит/сек
Номинальный битрейт : 5 000 Кбит/сек
Ширина : 1 280 пикселей
Высота : 720 пикселей
Соотношение сторон : 16:9
Режим частоты кадров : Постоянный
Частота кадров : 23,976 (24000/1001) кадра/сек
Стандарт вещания : Component
Цветовое пространство : YUV
Субдискретизация насыщенности : 4:2:0
Битовая глубина : 8 бит
Тип развёртки : Прогрессивная
Бит/(Пиксели*Кадры) : 0.203
Размер потока : 2,65 Гбайт (92%)
Библиотека кодирования : x264 core 155
Настройки программы : cabac=1 / ref=4 / deblock=1:0:0 / analyse=0x3:0x3 / me=dia / subme=1 / psy=1 / psy_rd=1.00:0.00 / mixed_ref=0 / me_range=16 / chroma_me=1 / trellis=0 / 8x8dct=1 / cqm=1 / deadzone=21,11 / fast_pskip=1 / chroma_qp_offset=0 / threads=22 / lookahead_threads=3 / sliced_threads=0 / slices=1 / nr=0 / decimate=1 / interlaced=0 / minigop=0 / stitchable=1 / constrained_intra=0 / bframes=2 / b_pyramid=0 / b_adapt=0 / b_bias=0 / direct=1 / weightb=1 / open_gop=1 / weightp=0 / keyint=240 / keyint_min=23 / scenecut=40 / intra_refresh=0 / rc_lookahead=0 / rc=cbr / mbtree=0 / bitrate=5000 / ratetol=1.0 / qcomp=0.60 / qpmin=1 / qpmax=69 / qpstep=4 / vbv_maxrate=5000 / vbv_bufsize=5000 / nal_hrd=cbr / filler=1 / ip_ratio=1.40 / pb_ratio=1.30 / aq=1:1.00
Default : Да
Forced : Нет
Цветовой диапазон : Limited
Основные цвета : BT.709
Характеристики трансфера : BT.709
Коэффициенты матрицы : BT.709
Аудио
Идентификатор : 2
Формат : AC-3
Формат/Информация : Audio Coding 3
Коммерческое название : Dolby Digital
Идентификатор кодека : A_AC3
Продолжительность : 1 ч. 24 м.
Вид битрейта : Постоянный
Битрейт : 384 Кбит/сек
Каналы : 2 канала
Channel layout : L R
Частота : 48,0 КГц
Частота кадров : 31,250 кадров/сек (1536 SPF)
Метод сжатия : С потерями
Размер потока : 232 Мбайт (8%)
Service kind : Complete Main
Default : Да
Forced : Нет
Скриншоты:
Все одноименные релизы в КлубеВремя раздачи: 24/7 (круглосуточно) (минимум до появления первых 3-5 скачавших)
[Профиль] [ЛС]
Показать сообщения:    
Ответить на тему

Текущее время: 24-Май 12:31

Часовой пояс: UTC ± 0



Вы не можете начинать темы
Вы не можете отвечать на сообщения
Вы не можете редактировать свои сообщения
Вы не можете удалять свои сообщения
Вы не можете голосовать в опросах
Вы не можете прикреплять файлы к сообщениям
Вы не можете скачивать файлы

[  Время выполнения: 0,056 сек  |  MySQL: 0,004 сек (7%) · 3 запр.  |  GZIP выкл  |  Память: 422,29 KB / 1,74 MB / 1,34 MB  |  Лимит: 6 7 7  ]