King’s Man: Начало / The King's Man (2021) WEB-DLRip [Line, AD]

Ответить на тему
 
Автор Сообщение

admin ®

Пол: Не указан

Стаж: 6 месяца 19 дня

Сообщений: 11520

Создавать темы 30-Янв-2024 15:04

[Цитировать]

King’s Man: Начало / The King's Man (2021) WEB-DLRip - Производство: США, Великобритания / 20th Century Studios, Marv Films, Marv Studios
Жанр: боевик, триллер, приключения
Режиссер: Мэттью Вон
Продюсер: Адам Болинг, Рэйф Файнс, Дэйв Гиббонс
Актеры: Харрис Дикинсон, Даниэль Брюль, Рэйф Файнс, Аарон Тейлор-Джонсон, Рис Иванс, Джемма Артертон, Мэттью Гуд, Том Холландер, Бранка Катич, Стэнли Туччи
Описание:
Kingsman — организация супершпионов, действующая на благо человечества вдали от любопытных глаз. И один из первых и самых талантливых оперативников в истории организации — Конрад, молодой и наглый сын герцога Оксфордского. Как и многие его друзья, он мечтал служить на благо Англии, но в итоге оказался втянут в тайный мир шпионов и убийц.
Возраст: 18+ (зрителям, достигшим 18 лет. запрещено для детей)
Рейтинг MPAA: R (лицам до 17 лет обязательно присутствие взрослого)
Дата мировой премьеры: 22 декабря 2021
Дата российской премьеры: 13 января 2022, «Дисней Студиос»
Релиз от: Anrif
Продолжительность: 02:10:32
Качество видео: WEB-DLRip
Перевод: Дублированный (Line)
Субтитры: Отсутствуют
Реклама: Присутствует баннер!
Видео: XviD, 720x304, 2124 Kbps
Аудио: АС-3, 2 ch, 192 kbps

MediaInfo:

Общее
Полное имя : F:\[Anf].The.King's.Man.(2021).WEB-DLRip.avi
Формат : AVI
Формат/Информация : Audio Video Interleave
Профиль формата : OpenDML
Размер файла : 2,12 Гбайт
Продолжительность : 2 ч. 10 м.
Общий поток : 2 328 Кбит/сек
Название фильма : King’s Man: Начало / The King's Man
Режиссёр : Мэттью Вон
Жанр : боевик, триллер, комедия, криминал, приключения
Тема : WEB-DLRip
Дата записи : 2021
Программа кодирования : VirtualDubMod 1.5.10.3 | www.virtualdub-fr.org || (build 2550/release)
Библиотека кодирования : VirtualDubMod build 2550/release
Авторское право : 20th Century Studios, Marv Films, Marv Studios
Примечание : RIP BY -=ANRIF=-
Видео
Идентификатор : 0
Формат : MPEG-4 Visual
Профиль формата : Advanced Simple@L5
Настройки формата : BVOP1
Параметр BVOP формата : 1
Параметр QPel формата : Нет
Параметр GMC формата : Без точки перехода
Параметр матрицы формата : Default (MPEG)
Идентификатор кодека : XVID
Идентификатор кодека/Подсказка : XviD
Продолжительность : 2 ч. 10 м.
Битрейт : 2 124 Кбит/сек
Ширина : 720 пикселей
Высота : 304 пикселя
Соотношение сторон : 2,35:1
Частота кадров : 23,976 (24000/1001) кадра/сек
Цветовое пространство : YUV
Субдискретизация насыщенности : 4:2:0
Битовая глубина : 8 бит
Тип развёртки : Прогрессивная
Метод сжатия : С потерями
Бит/(Пиксели*Кадры) : 0.405
Размер потока : 1,94 Гбайт (91%)
Библиотека кодирования : XviD 73
Аудио
Идентификатор : 1
Формат : AC-3
Формат/Информация : Audio Coding 3
Коммерческое название : Dolby Digital
Идентификатор кодека : 2000
Продолжительность : 2 ч. 10 м.
Вид битрейта : Постоянный
Битрейт : 192 Кбит/сек
Каналы : 2 канала
Channel layout : L R
Частота : 48,0 КГц
Частота кадров : 31,250 кадров/сек (1536 SPF)
Метод сжатия : С потерями
Размер потока : 179 Мбайт (8%)
Выравнивание : Разделение по промежуткам
Продолжительность промежутка : 42 мс. (1,00 видеокадр)
Время предзагрузки промежутка : 500 мс.
Service kind : Complete Main
Скриншоты:
Все одноименные релизы в КлубеВремя раздачи: 24/7 (минимум до появления первых 3-5 скачавших)
[Профиль] [ЛС]
Показать сообщения:    
Ответить на тему

Текущее время: 17-Апр 16:01

Часовой пояс: UTC ± 0



Вы не можете начинать темы
Вы не можете отвечать на сообщения
Вы не можете редактировать свои сообщения
Вы не можете удалять свои сообщения
Вы не можете голосовать в опросах
Вы не можете прикреплять файлы к сообщениям
Вы не можете скачивать файлы

[  Время выполнения: 0,029 сек  |  MySQL: 0,003 сек (9%) · 3 запр.  |  GZIP выкл  |  Память: 422,29 KB / 1,72 MB / 1,32 MB  |  Лимит: 21 19 17  ]