Прошлой ночью в Сохо / Last Night in Soho (2021) WEB-DLRip [Line, AD]

Ответить на тему
 
Автор Сообщение

admin ®

Пол: Не указан

Стаж: 6 месяца 19 дня

Сообщений: 11520

Создавать темы 30-Янв-2024 14:59

[Цитировать]

Прошлой ночью в Сохо / Last Night in Soho (2021) WEB-DLRip«A murder in the past. A mystery in the future»- Производство: Великобритания / Complete Fiction, Film4, Working Title Films
Жанр: драма, триллер, ужасы
Режиссер: Эдгар Райт
Актеры: Томасин Маккензи, Аня Тейлор-Джой, Мэтт Смит, Дайана Ригг, Эйми Кассеттари, Рита Тушингем, Колин Мейс, Майкл Аджао, Сюннёве Карлсен, Джесси Мей Ли, Кассиус Нельсон
Описание:
Молодая провинциалка Элоиз без ума от 1960-х. Всю жизнь она прожила с бабушкой, но теперь едет учиться в Лондон на дизайнера одежды. Не сумев приспособиться к шумной жизни в общежитии, девушка переезжает в более привычную обстановку — снимает давно не видавшую ремонта комнату у пожилой хозяйки. В первую же ночь на новом месте Элоиз видит то ли очень реалистичный сон, то ли и впрямь переносится в любимую эпоху в образе эффектной блондинки, которая вознамерилась покорить ночной Сохо.
Возраст: 18+ (зрителям, достигшим 18 лет. запрещено для детей)
Рейтинг MPAA: R (лицам до 17 лет обязательно присутствие взрослого)
Дата мировой премьеры: 4 сентября 2021
Дата российской премьеры: 25 ноября 2021, «UPI»
Цифровой релиз: 21 января 2022, «Universal»
Продолжительность: 01:57:58
Качество видео: WEB-DLRip
Перевод: Дублированный (Чистый звук)
Субтитры: Отсутствуют
Реклама: Присутствует аудио и видео реклама + баннер.
Видео: XviD, 720x304, ~1458 Kbps
Аудио: AC3, 2 ch, 192 Kbps

MediaInfo

Общее
Полное имя : E:\Downloads\Last.Night.in.Soho.2021.WEB-DLRip.avi
Формат : AVI
Формат/Информация : Audio Video Interleave
Размер файла : 1,37 Гбайт
Продолжительность : 1 ч. 57 м.
Общий поток : 1659 Кбит/сек
Программа кодирования : VirtualDubMod 1.5.10.3 | www.virtualdub-fr.org || (build 2550/release)
Библиотека кодирования : VirtualDubMod build 2550/release
Видео
Идентификатор : 0
Формат : MPEG-4 Visual
Профиль формата : Advanced Simple@L5
Параметр BVOP формата : 2
Параметр QPel формата : Нет
Параметр GMC формата : Без точки перехода
Параметр матрицы формата : Выборочная
Идентификатор кодека : XVID
Идентификатор кодека/Подсказка : XviD
Продолжительность : 1 ч. 57 м.
Битрейт : 1458 Кбит/сек
Ширина : 720 пикселей
Высота : 304 пикселя
Соотношение сторон : 2,35:1
Частота кадров : 23,976 кадра/сек
Цветовое пространство : YUV
Субдискретизация насыщенности : 4:2:0
Битовая глубина : 8 бит
Тип развёртки : Прогрессивная
Метод сжатия : С потерями
Бит/(Пиксели*Кадры) : 0.278
Размер потока : 1,20 Гбайт (88%)
Библиотека кодирования : XviD 1.2.1 (UTC 2008-12-04)
Аудио
Идентификатор : 1
Формат : AC-3
Формат/Информация : Audio Coding 3
Расширение режима : CM (complete main)
Параметр Endianness формата : Big
Идентификатор кодека : 2000
Продолжительность : 1 ч. 57 м.
Вид битрейта : Постоянный
Битрейт : 192 Кбит/сек
Каналы : 2 канала
Расположение каналов : Front: L R
Частота : 48,0 КГц
Метод сжатия : С потерями
Размер потока : 162 Мбайт (12%)
Выравнивание : Разделение по промежуткам
Продолжительность промежутка : 42 мс. (1,00 видеокадр)
Время предзагрузки промежутка : 500 мс.
Скриншоты:
Все одноименные релизы в КлубеВремя раздачи: с 10:00 до 22:00 (минимум до появления первых 3-5 скачавших)
[Профиль] [ЛС]
Показать сообщения:    
Ответить на тему

Текущее время: 17-Апр 16:34

Часовой пояс: UTC ± 0



Вы не можете начинать темы
Вы не можете отвечать на сообщения
Вы не можете редактировать свои сообщения
Вы не можете удалять свои сообщения
Вы не можете голосовать в опросах
Вы не можете прикреплять файлы к сообщениям
Вы не можете скачивать файлы

[  Время выполнения: 0,030 сек  |  MySQL: 0,004 сек (12%) · 3 запр.  |  GZIP выкл  |  Память: 422,29 KB / 1,72 MB / 1,32 MB  |  Лимит: 7 7 9  ]