Перекрёстный огонь / Nou fo / Raging Fire (Crossfire) (2021) WEB-DLRip [H.264/1080p-LQ] [DVO, AD]

Ответить на тему
 
Автор Сообщение

admin ®

Пол: Не указан

Стаж: 6 месяца 19 дня

Сообщений: 11520

Создавать темы 30-Янв-2024 14:40

[Цитировать]

Перекрёстный огонь / Nou fo / Raging Fire (Crossfire) (2021) WEB-DLRip - Производство: Гонконг, Китай / Emperor Film Production, Tencent Pictures, Super Bullet Pictures
Жанр: боевик, триллер, криминал
Режиссер: Бенни Чан
Продюсер: Бенни Чан, Райан Лин, Тан Яолян
Актеры: Донни Йен, Николас Це, Цинь Лань, Патрик Там, Кенни Вон, Дип Нг, Джина Хо, Ангус Юн, Брюс Тун, Генри Май
Описание:
Шань — честный полицейский, который раскрыл множество дел. Однажды во время спецоперации на него нападает группа преступников во главе с Нго. Тот тоже когда-то был полицейским и восхищался Шанем, но три года назад после одного происшествия сел в тюрьму. Теперь Нго вышел и готов убить всех, кто был к нему несправедлив.
Дата мировой премьеры: 29 июля 2021
Релиз от: Anrif
Продолжительность: 02:07:40
Качество видео: WEB-DLRip
Перевод: Любительский двухголосый (KoloBok)
Язык озвучки: Русский
Субтитры: Китайские (hardsab)
Реклама: Присутствует баннер!
Видео: AVC/H.264, 1920x800, ~7047 kbps
Аудио: AС-3, 2 ch, 384 kbps - Русский

MediaInfo:

Общее
Уникальный идентификатор : 197843748159282973469867640782170674863 (0x94D751E43E76A1AA881F682B0840D6AF)
Полное имя : F:\[Anf].Nou.fo.(2021).WEB-DLRip.[1080p-LQ].mkv
Формат : Matroska
Версия формата : Version 4
Размер файла : 6,63 Гбайт
Продолжительность : 2 ч. 7 м.
Режим общего битрейта : Переменный
Общий поток : 7 433 Кбит/сек
Название фильма : Перекрёстный огонь / Raging fire / Nou fo_(2021)
Дата кодирования : UTC 2021-10-15 23:00:43
Программа кодирования : mkvmerge v10.0.0 ('To Drown In You') 64bit
Библиотека кодирования : libebml v1.3.4 + libmatroska v1.4.5
Видео
Идентификатор : 1
Формат : AVC
Формат/Информация : Advanced Video Codec
Профиль формата : High@L4.1
Настройки формата : CABAC / 4 Ref Frames
Параметр CABAC формата : Да
Параметр RefFrames формата : 4 кадра
Идентификатор кодека : V_MPEG4/ISO/AVC
Продолжительность : 2 ч. 7 м.
Вид битрейта : Переменный
Битрейт : 7 047 Кбит/сек
Номинальный битрейт : 8 000 Кбит/сек
Максимальный битрейт : 8 000 Кбит/сек
Ширина : 1 920 пикселей
Высота : 800 пикселей
Соотношение сторон : 2,40:1
Режим частоты кадров : Постоянный
Частота кадров : 23,976 (24000/1001) кадра/сек
Стандарт вещания : Component
Цветовое пространство : YUV
Субдискретизация насыщенности : 4:2:0
Битовая глубина : 8 бит
Тип развёртки : Прогрессивная
Бит/(Пиксели*Кадры) : 0.191
Размер потока : 6,28 Гбайт (95%)
Заголовок : Anrif
Библиотека кодирования : x264 core 155
Настройки программы : cabac=1 / ref=4 / deblock=1:0:0 / analyse=0x3:0x3 / me=dia / subme=1 / psy=1 / psy_rd=1.00:0.00 / mixed_ref=0 / me_range=16 / chroma_me=1 / trellis=0 / 8x8dct=1 / cqm=1 / deadzone=21,11 / fast_pskip=1 / chroma_qp_offset=0 / threads=25 / lookahead_threads=4 / sliced_threads=0 / slices=1 / nr=0 / decimate=1 / interlaced=0 / minigop=0 / stitchable=1 / constrained_intra=0 / bframes=2 / b_pyramid=0 / b_adapt=0 / b_bias=0 / direct=1 / weightb=1 / open_gop=1 / weightp=0 / keyint=240 / keyint_min=23 / scenecut=40 / intra_refresh=0 / rc_lookahead=0 / rc=cbr / mbtree=0 / bitrate=8000 / ratetol=1.0 / qcomp=0.60 / qpmin=1 / qpmax=69 / qpstep=4 / vbv_maxrate=8000 / vbv_bufsize=8000 / nal_hrd=vbr / filler=0 / ip_ratio=1.40 / pb_ratio=1.30 / aq=1:1.00
Язык : Chinese
Default : Да
Forced : Нет
Цветовой диапазон : Limited
Основные цвета : BT.709
Характеристики трансфера : BT.709
Коэффициенты матрицы : BT.709
Аудио
Идентификатор : 2
Формат : AC-3
Формат/Информация : Audio Coding 3
Коммерческое название : Dolby Digital
Идентификатор кодека : A_AC3
Продолжительность : 2 ч. 7 м.
Вид битрейта : Постоянный
Битрейт : 384 Кбит/сек
Каналы : 2 канала
Channel layout : L R
Частота : 48,0 КГц
Частота кадров : 31,250 кадров/сек (1536 SPF)
Метод сжатия : С потерями
Размер потока : 351 Мбайт (5%)
Заголовок : (DVO, KoloBok)
Язык : Russian
Service kind : Complete Main
Default : Да
Forced : Нет
Скриншоты: Все одноименные релизы в Клубе Время раздачи: с 18:00 до 24:00 (до первых 3-5 скачавших)
[Профиль] [ЛС]
Показать сообщения:    
Ответить на тему

Текущее время: 17-Апр 16:03

Часовой пояс: UTC ± 0



Вы не можете начинать темы
Вы не можете отвечать на сообщения
Вы не можете редактировать свои сообщения
Вы не можете удалять свои сообщения
Вы не можете голосовать в опросах
Вы не можете прикреплять файлы к сообщениям
Вы не можете скачивать файлы

[  Время выполнения: 0,045 сек  |  MySQL: 0,003 сек (8%) · 3 запр.  |  GZIP выкл  |  Память: 422,29 KB / 1,74 MB / 1,34 MB  |  Лимит: 13 17 16  ]