Пейзаж с невидимой рукой / Landscape with Invisible (2023) WEBRip [H.264/1080p] [MVO] [AD]

Ответить на тему
 
Автор Сообщение

admin ®

Пол: Не указан

Стаж: 7 месяца 26 дня

Сообщений: 11520

Создавать темы 30-Янв-2024 17:52

[Цитировать]

Пейзаж с невидимой рукой / Landscape with Invisible (2023) WEBRip [H.264/1080p]- Производство: США / Annapurna Pictures, Metro-Goldwyn-Mayer (MGM), Plan B Entertainment, Studio Concierge
Жанр: фантастика, драма, комедия
Режиссер: Кори Финли
Актеры: Асанте Блэк, Тиффани Хэддиш, Кайли Роджерс, Бруклин МакКинси, Джош Хэмилтон, Майкл Гандольфини, Джон Ньюберг, Dev H Patel, Geanna Funes, Кристиан Адам
Описание:
Когда передовые технологии инопланетной расы оставили большинство населения земли без работы и средств к существованию, двое подростков решают пойти на рискованный план, чтобы обеспечить будущее своих семей.
Рейтинг MPAA: R (лицам до 17 лет обязательно присутствие взрослого)
Продолжительность: 01:42:32
Качество видео: WEBRip (1080p)
Перевод: Многоголосый любительский (AlphaProject)
Язык озвучки: Русский
Субтитры: Отсутствуют
Реклама: Присутствует баннер.
Видео: AVC/H.264, 1792x1080, ~5625 Kbps
Аудио: AC3, 2 ch, 384 Kbps

MediaInfo:

Общее
Полное имя : D:\NNM\Пейзаж с невидимой рукой\Landscape.with.Invisible.Hand.2023.WEBRip.1080p.mkv
Формат : Matroska
Версия формата : Version 2
Размер файла : 4,39 Гбайт
Продолжительность : 1 ч. 42 м.
Режим общего битрейта : Постоянный
Общий поток : 6 131 Кбит/сек
Программа кодирования : libmatroska 1.4.1
Библиотека кодирования : SolveigMM Matroska Muxer Version 1.0.1904.23
Видео
Идентификатор : 1
Формат : AVC
Формат/Информация : Advanced Video Codec
Профиль формата : High@L4.1
Настройки формата : CABAC / 4 Ref Frames
Параметр CABAC формата : Да
Параметр RefFrames формата : 4 кадра
Идентификатор кодека : V_MPEG4/ISO/AVC
Продолжительность : 1 ч. 42 м.
Вид битрейта : Постоянный
Битрейт : 5 625 Кбит/сек
Номинальный битрейт : 7 000 Кбит/сек
Ширина : 1 792 пикселя
Высота : 1 080 пикселей
Соотношение сторон : 5:3
Режим частоты кадров : Постоянный
Частота кадров : 23,976 (24000/1001) кадра/сек
Стандарт вещания : Component
Цветовое пространство : YUV
Субдискретизация насыщенности : 4:2:0
Битовая глубина : 8 бит
Тип развёртки : Прогрессивная
Бит/(Пиксели*Кадры) : 0.121
Размер потока : 4,03 Гбайт (92%)
Библиотека кодирования : x264 core 155
Default : Нет
Forced : Нет
Цветовой диапазон : Limited
Основные цвета : BT.709
Характеристики трансфера : BT.709
Коэффициенты матрицы : BT.709
Аудио
Идентификатор : 2
Формат : AC-3
Формат/Информация : Audio Coding 3
Коммерческое название : Dolby Digital
Идентификатор кодека : A_AC3
Продолжительность : 1 ч. 42 м.
Вид битрейта : Постоянный
Битрейт : 384 Кбит/сек
Каналы : 2 канала
Channel layout : L R
Частота : 48,0 КГц
Частота кадров : 31,250 кадров/сек (1536 SPF)
Метод сжатия : С потерями
Размер потока : 282 Мбайт (6%)
Язык : Russian
Service kind : Complete Main
Default : Нет
Forced : Нет
Скриншоты: Все одноименные релизы в КлубеВремя раздачи: 24/7 (до 10-ти скачавших)
[Профиль] [ЛС]
Показать сообщения:    
Ответить на тему

Текущее время: 24-Май 13:48

Часовой пояс: UTC ± 0



Вы не можете начинать темы
Вы не можете отвечать на сообщения
Вы не можете редактировать свои сообщения
Вы не можете удалять свои сообщения
Вы не можете голосовать в опросах
Вы не можете прикреплять файлы к сообщениям
Вы не можете скачивать файлы

[  Время выполнения: 0,031 сек  |  MySQL: 0,003 сек (11%) · 3 запр.  |  GZIP выкл  |  Память: 422,29 KB / 1,72 MB / 1,32 MB  |  Лимит: 14 15 15  ]