Город астероидов / Asteroid City (2023) BDRip [H.264/1080p]

Ответить на тему
 
Автор Сообщение

admin ®

Пол: Не указан

Стаж: 6 месяца 19 дня

Сообщений: 11520

Создавать темы 30-Янв-2024 17:23

[Цитировать]

Город астероидов / Asteroid City (2023) BDRip - Производство: США, Германия / American Empirical Pictures, Focus Features, Indian Paintbrush, Studio Babelsberg
Жанр: фантастика, драма, мелодрама, комедия
Режиссер: Уэс Андерсон
Актеры: Джейсон Шварцман, Скарлетт Йоханссон, Том Хэнкс, Джеффри Райт, Тильда Суинтон, Эдвард Нортон, Брайан Крэнстон, Эдриан Броуди, Майкл Маггарт, Хоуп Дэвис
Описание:
1955 год, небольшой вымышленный городок, расположенный возле кратера, оставшегося после падения астероида тысячи лет назад. Каждый год в этом месте проводится собрание юных астрономов, в котором участвуют ученики, их семьи, учителя, а также военные. Очередной такой слёт резко прерывается событиями, способными изменить мир.
Рейтинг MPAA: PG-13 (детям до 13 лет просмотр нежелателен)
Релиз от: DoMiNo & seleZen
Продолжительность: 01:44:59
Качество видео: BDRip
Перевод: Дублированный (HotVoice 41), многоголосый профессиональный (Jaskier, HDRezka Studio, TVShows), авторский (Ю. Сербин)
Язык озвучки: Русский, английский
Субтитры: Русские (forced, full), английские (full, SDH)
Видео: AVC/H.264, 1920х1080, ~18 Mbps
Аудио 1: AC3, 6 ch, 448 Kbps, русский (DUB HotVoice 41)
Аудио 2: E-AC3, 6 ch, 768 Kbps, русский (DUB HotVoice 41)
Аудио 3: AC3, 6 ch, 448 Kbps, русский (MVO HDRezka Studio)
Аудио 4: AC3, 6 ch, 384 Kbps, русский (MVO Jaskier)
Аудио 5: AC3, 6 ch, 384 Kbps, русский (MVO TVShows)
Аудио 6: AC3, 6 ch, 384 Kbps, русский (AVO Ю. Сербин)
Аудио 7: AC3, 6 ch, 640 Kbps, английский

MediaInfo:

Общее
Уникальный идентификатор : 59395569383188173597858687930217833387 (0x2CAF2BAA13697317C5B77433DFE0A3AB)
Полное имя : E:\Загрузки\Asteroid.City.2023.BDRip.1080p.seleZen.mkv
Формат : Matroska
Версия формата : Version 4
Размер файла : 15,7 Гбайт
Продолжительность : 1 ч. 44 м.
Общий поток : 21,5 Мбит/сек
Частота кадров : 23,976 кадра/сек
Название фильма : Asteroid City 2023 from seleZen
Дата кодирования : 2023-08-17 18:04:41 UTC
Программа кодирования : mkvmerge v77.0 ('Elemental') 64-bit
Библиотека кодирования : libebml v1.4.4 + libmatroska v1.7.1
Видео
Идентификатор : 1
Формат : AVC
Формат/Информация : Advanced Video Codec
Профиль формата : Progressive High@L4.1
Настройки формата : CABAC / 4 Ref Frames
Параметр CABAC формата : Да
Параметр RefFrames формата : 4 кадра
Идентификатор кодека : V_MPEG4/ISO/AVC
Продолжительность : 1 ч. 44 м.
Битрейт : 18,0 Мбит/сек
Ширина : 1 920 пикселей
Высота : 1 080 пикселей
Соотношение сторон : 16:9
Режим частоты кадров : Постоянный
Частота кадров : 23,976 (24000/1001) кадра/сек
Цветовое пространство : YUV
Субдискретизация насыщенности : 4:2:0
Битовая глубина : 8 бит
Тип развёртки : Прогрессивная
Бит/(Пиксели*Кадры) : 0.362
Размер потока : 13,2 Гбайт (84%)
Заголовок : WiKi
Библиотека кодирования : x264 core 157 r2969 d4099dd
Настройки программы : cabac=1 / ref=4 / deblock=1:-3:-3 / analyse=0x3:0x113 / me=umh / subme=11 / psy=1 / psy_rd=1.00:0.05 / mixed_ref=1 / me_range=64 / chroma_me=1 / trellis=2 / 8x8dct=1 / cqm=0 / deadzone=21,11 / fast_pskip=1 / chroma_qp_offset=-5 / threads=34 / lookahead_threads=5 / sliced_threads=0 / nr=0 / decimate=0 / interlaced=0 / bluray_compat=0 / constrained_intra=0 / bframes=8 / b_pyramid=2 / b_adapt=2 / b_bias=0 / direct=3 / weightb=1 / open_gop=0 / weightp=2 / keyint=250 / keyint_min=23 / scenecut=40 / intra_refresh=0 / rc=2pass / mbtree=0 / bitrate=18000 / ratetol=1.0 / qcomp=0.60 / qpmin=0 / qpmax=69 / qpstep=4 / cplxblur=20.0 / qblur=0.5 / ip_ratio=1.40 / pb_ratio=1.30 / aq=1:0.80
Язык : English
Default : Да
Forced : Нет
Аудио #1
Идентификатор : 2
Формат : AC-3
Формат/Информация : Audio Coding 3
Коммерческое название : Dolby Digital
Идентификатор кодека : A_AC3
Продолжительность : 1 ч. 44 м.
Вид битрейта : Постоянный
Битрейт : 448 Кбит/сек
Каналы : 6 каналов
Channel layout : L R C LFE Ls Rs
Частота : 48,0 КГц
Частота кадров : 31,250 кадров/сек (1536 SPF)
Метод сжатия : С потерями
Размер потока : 336 Мбайт (2%)
Заголовок : Dub_HotVoice 41
Язык : Russian
Service kind : Complete Main
Default : Да
Forced : Нет
Аудио #2
Идентификатор : 3
Формат : E-AC-3
Формат/Информация : Enhanced AC-3
Коммерческое название : Dolby Digital Plus
Идентификатор кодека : A_EAC3
Продолжительность : 1 ч. 44 м.
Вид битрейта : Постоянный
Битрейт : 768 Кбит/сек
Каналы : 6 каналов
Channel layout : L R C LFE Ls Rs
Частота : 48,0 КГц
Частота кадров : 31,250 кадров/сек (1536 SPF)
Метод сжатия : С потерями
Размер потока : 577 Мбайт (4%)
Заголовок : Dub_HotVoice 41
Язык : Russian
Service kind : Complete Main
Default : Нет
Forced : Нет
Аудио #3
Идентификатор : 4
Формат : AC-3
Формат/Информация : Audio Coding 3
Коммерческое название : Dolby Digital
Идентификатор кодека : A_AC3
Продолжительность : 1 ч. 44 м.
Вид битрейта : Постоянный
Битрейт : 448 Кбит/сек
Каналы : 6 каналов
Channel layout : L R C LFE Ls Rs
Частота : 48,0 КГц
Частота кадров : 31,250 кадров/сек (1536 SPF)
Метод сжатия : С потерями
Размер потока : 336 Мбайт (2%)
Заголовок : MVO_HDRezka Studio
Язык : Russian
Service kind : Complete Main
Default : Нет
Forced : Нет
Аудио #4
Идентификатор : 5
Формат : AC-3
Формат/Информация : Audio Coding 3
Коммерческое название : Dolby Digital
Идентификатор кодека : A_AC3
Продолжительность : 1 ч. 44 м.
Вид битрейта : Постоянный
Битрейт : 384 Кбит/сек
Каналы : 6 каналов
Channel layout : L R C LFE Ls Rs
Частота : 48,0 КГц
Частота кадров : 31,250 кадров/сек (1536 SPF)
Метод сжатия : С потерями
Размер потока : 288 Мбайт (2%)
Заголовок : MVO_Jaskier
Язык : Russian
Service kind : Complete Main
Default : Нет
Forced : Нет
Аудио #5
Идентификатор : 6
Формат : AC-3
Формат/Информация : Audio Coding 3
Коммерческое название : Dolby Digital
Идентификатор кодека : A_AC3
Продолжительность : 1 ч. 44 м.
Вид битрейта : Постоянный
Битрейт : 384 Кбит/сек
Каналы : 6 каналов
Channel layout : L R C LFE Ls Rs
Частота : 48,0 КГц
Частота кадров : 31,250 кадров/сек (1536 SPF)
Метод сжатия : С потерями
Размер потока : 288 Мбайт (2%)
Заголовок : MVO_TVShows
Язык : Russian
Service kind : Complete Main
Default : Нет
Forced : Нет
Аудио #6
Идентификатор : 7
Формат : AC-3
Формат/Информация : Audio Coding 3
Коммерческое название : Dolby Digital
Идентификатор кодека : A_AC3
Продолжительность : 1 ч. 44 м.
Вид битрейта : Постоянный
Битрейт : 384 Кбит/сек
Каналы : 6 каналов
Channel layout : L R C LFE Ls Rs
Частота : 48,0 КГц
Частота кадров : 31,250 кадров/сек (1536 SPF)
Метод сжатия : С потерями
Размер потока : 288 Мбайт (2%)
Заголовок : AVO_Serbin
Язык : Russian
Service kind : Complete Main
Default : Нет
Forced : Нет
Аудио #7
Идентификатор : 8
Формат : AC-3
Формат/Информация : Audio Coding 3
Коммерческое название : Dolby Digital
Идентификатор кодека : A_AC3
Продолжительность : 1 ч. 44 м.
Вид битрейта : Постоянный
Битрейт : 640 Кбит/сек
Каналы : 6 каналов
Channel layout : L R C LFE Ls Rs
Частота : 48,0 КГц
Частота кадров : 31,250 кадров/сек (1536 SPF)
Метод сжатия : С потерями
Размер потока : 481 Мбайт (3%)
Заголовок : Original
Язык : English
Service kind : Complete Main
Default : Нет
Forced : Нет
Текст #1
Идентификатор : 9
Формат : UTF-8
Идентификатор кодека : S_TEXT/UTF8
Идентификатор кодека/Информация : UTF-8 Plain Text
Продолжительность : 1 ч. 30 м.
Битрейт : 6 бит/сек
Частота кадров : 0,016 кадр/сек
Count of elements : 86
Размер потока : 4,36 Кбайт (0%)
Заголовок : Forced
Язык : Russian
Default : Да
Forced : Нет
Текст #2
Идентификатор : 10
Формат : UTF-8
Идентификатор кодека : S_TEXT/UTF8
Идентификатор кодека/Информация : UTF-8 Plain Text
Продолжительность : 1 ч. 37 м.
Битрейт : 138 бит/сек
Частота кадров : 0,298 кадр/сек
Count of elements : 1752
Размер потока : 99,2 Кбайт (0%)
Заголовок : Full_FOCS & CHACUN
Язык : Russian
Default : Нет
Forced : Нет
Текст #3
Идентификатор : 11
Формат : UTF-8
Идентификатор кодека : S_TEXT/UTF8
Идентификатор кодека/Информация : UTF-8 Plain Text
Продолжительность : 1 ч. 43 м.
Битрейт : 83 бит/сек
Частота кадров : 0,313 кадр/сек
Count of elements : 1949
Размер потока : 63,8 Кбайт (0%)
Заголовок : Full
Язык : English
Default : Нет
Forced : Нет
Текст #4
Идентификатор : 12
Формат : UTF-8
Идентификатор кодека : S_TEXT/UTF8
Идентификатор кодека/Информация : UTF-8 Plain Text
Продолжительность : 1 ч. 43 м.
Битрейт : 89 бит/сек
Частота кадров : 0,344 кадр/сек
Count of elements : 2144
Размер потока : 68,5 Кбайт (0%)
Заголовок : SDH
Язык : English
Default : Нет
Forced : Нет
Меню
00:00:00.000 : en:Chapter 1
00:05:01.676 : en:Chapter 2
00:09:55.553 : en:Chapter 3
00:12:40.259 : en:Chapter 4
00:23:25.695 : en:Chapter 5
00:25:44.960 : en:Chapter 6
00:30:06.221 : en:Chapter 7
00:33:42.145 : en:Chapter 8
00:39:54.809 : en:Chapter 9
00:46:26.033 : en:Chapter 10
00:54:39.609 : en:Chapter 11
00:57:29.654 : en:Chapter 12
01:07:21.120 : en:Chapter 13
01:12:12.870 : en:Chapter 14
01:15:25.145 : en:Chapter 15
01:22:13.094 : en:Chapter 16
01:25:48.852 : en:Chapter 17
01:29:39.707 : en:Chapter 18
01:33:45.661 : en:Chapter 19
01:37:51.282 : en:Chapter 20
Скриншоты:
Все одноименные релизы в КлубеВремя раздачи: 24/7 (минимум до появления первых 3-5 скачавших)
[Профиль] [ЛС]
Показать сообщения:    
Ответить на тему

Текущее время: 17-Апр 15:48

Часовой пояс: UTC ± 0



Вы не можете начинать темы
Вы не можете отвечать на сообщения
Вы не можете редактировать свои сообщения
Вы не можете удалять свои сообщения
Вы не можете голосовать в опросах
Вы не можете прикреплять файлы к сообщениям
Вы не можете скачивать файлы

[  Время выполнения: 0,030 сек  |  MySQL: 0,003 сек (10%) · 5 запр.  |  GZIP выкл  |  Память: 422,29 KB / 1,75 MB / 1,38 MB  |  Лимит: 14 14 14  ]