Рай для дурака / Fool's Paradise (2023) BDRemux [H.264/1080p]

Ответить на тему
 
Автор Сообщение

admin ®

Пол: Не указан

Стаж: 7 месяца 26 дня

Сообщений: 11520

Создавать темы 30-Янв-2024 17:20

[Цитировать]

Рай для дурака / Fool's Paradise (2023) BDRemux [H.264/1080p]- Производство: США / Armory Films, Page Fifty-Four Pictures, Rickard Pictures
Жанр: комедия
Режиссер: Чарли Дэй
Продюсер: Алекс Сакс
Актеры: Чарли Дэй, Кен Жонг, Кейт Бекинсейл, Эдриан Броуди, Джейсон Судейкис, Рэй Лиотта, Стив Култер, Джейсон Бейтман, Иди Фалько, Мэри Элизабет Эллис
Описание: Знаменитый актер отказывается выходить на съемочную площадку. Судьба картины под вопросом. И тут продюсер встречает на улице человека, похожего на своего капризного актера, как две капли воды. Вместе со сценаристом и непредсказуемым режиссером он решает использовать его как двойника для съемок и не только.
Возраст: 18+ (Зрителям, достигшим 18 лет)
Рейтинг MPAA: R (Лицам до 17 обязательно присутствие взрослых)
Релиз от: Селезень
Продолжительность: 01:38:22
Качество видео: BDRemux 1080p
Перевод: Дублированный (Мосфильм-Мастер)
Язык озвучки: Русский, Английский
Субтитры: Английские (Full, SDH)
Видео: AVC/H.264, 1920x1080, 25.0 Mbps, 23.976 fps
Аудио 1: E-AC-3, 6 ch, 384 Kbps | Русский
Аудио 2: DTS-HD MA, 6 ch, 3385 Kbps | Английский

Mediainfo:

General
Unique ID : 305413391120073851248077869443751044855 (0xE5C47AC2F8381C7FE1869AEF556366F7)
Complete name : /Volumes/Promise Pegasus/Fools.Paradise.2023.BDRemux.1080p.mkv
Format : Matroska
Format version : Version 4
File size : 19.8 GiB
Duration : 1 h 38 min
Overall bit rate mode : Variable
Overall bit rate : 28.8 Mb/s
Frame rate : 23.976 FPS
Movie name : Fool's Paradise 2023 BDRemux 1080p
Encoded date : 2023-08-15 23:19:48 UTC
Writing application : mkvmerge v73.0.0 ('25 or 6 to 4') 64-bit
Writing library : libebml v1.4.4 + libmatroska v1.7.1
Video
ID : 1
Format : AVC
Format/Info : Advanced Video Codec
Format profile : High@L4.1
Format settings : CABAC / 4 Ref Frames
Format settings, CABAC : Yes
Format settings, Reference frames : 4 frames
Codec ID : V_MPEG4/ISO/AVC
Duration : 1 h 38 min
Bit rate mode : Variable
Bit rate : 25.0 Mb/s
Maximum bit rate : 35.0 Mb/s
Width : 1 920 pixels
Height : 1 080 pixels
Display aspect ratio : 16:9
Frame rate mode : Constant
Frame rate : 23.976 (24000/1001) FPS
Standard : NTSC
Color space : YUV
Chroma subsampling : 4:2:0
Bit depth : 8 bits
Scan type : Progressive
Bits/(Pixel*Frame) : 0.503
Stream size : 17.2 GiB (87%)
Language : zxx
Default : Yes
Forced : No
Color range : Limited
Color primaries : BT.709
Transfer characteristics : BT.709
Matrix coefficients : BT.709
Audio #1
ID : 2
Format : E-AC-3
Format/Info : Enhanced AC-3
Commercial name : Dolby Digital Plus
Codec ID : A_EAC3
Duration : 1 h 38 min
Bit rate mode : Constant
Bit rate : 384 kb/s
Channel(s) : 6 channels
Channel layout : L R C LFE Ls Rs
Sampling rate : 48.0 kHz
Frame rate : 31.250 FPS (1536 SPF)
Compression mode : Lossy
Stream size : 270 MiB (1%)
Title : Russian Dub Мосфильм-Мастер
Language : Russian
Service kind : Complete Main
Default : Yes
Forced : No
Audio #2
ID : 3
Format : DTS XLL
Format/Info : Digital Theater Systems
Commercial name : DTS-HD Master Audio
Codec ID : A_DTS
Duration : 1 h 38 min
Bit rate mode : Variable
Bit rate : 3 385 kb/s
Channel(s) : 6 channels
Channel layout : C L R Ls Rs LFE
Sampling rate : 48.0 kHz
Frame rate : 93.750 FPS (512 SPF)
Bit depth : 24 bits
Compression mode : Lossless
Stream size : 2.32 GiB (12%)
Title : English Original
Language : English
Default : No
Forced : No
Text #1
ID : 4
Format : UTF-8
Codec ID : S_TEXT/UTF8
Codec ID/Info : UTF-8 Plain Text
Duration : 1 h 31 min
Bit rate : 83 b/s
Frame rate : 0.304 FPS
Count of elements : 1678
Stream size : 56.5 KiB (0%)
Title : English full
Language : English
Default : No
Forced : No
Text #2
ID : 5
Format : UTF-8
Codec ID : S_TEXT/UTF8
Codec ID/Info : UTF-8 Plain Text
Duration : 1 h 37 min
Bit rate : 89 b/s
Frame rate : 0.325 FPS
Count of elements : 1900
Stream size : 63.7 KiB (0%)
Title : English SDH
Language : English
Default : No
Forced : No
Menu
00:00:00.000 : en:Chapter 01
00:07:16.435 : en:Chapter 02
00:18:38.575 : en:Chapter 03
00:26:39.513 : en:Chapter 04
00:35:20.952 : en:Chapter 05
00:42:45.271 : en:Chapter 06
00:49:49.987 : en:Chapter 07
00:57:34.576 : en:Chapter 08
01:05:40.186 : en:Chapter 09
01:15:01.497 : en:Chapter 10
01:22:24.939 : en:Chapter 11
01:32:39.554 : en:Chapter 12
Скриншоты:
Все одноименные релизы в КлубеВремя раздачи: 24/7 (круглосуточно) (до появления первых 3-5 скачавших)
[Профиль] [ЛС]
Показать сообщения:    
Ответить на тему

Текущее время: 24-Май 13:02

Часовой пояс: UTC ± 0



Вы не можете начинать темы
Вы не можете отвечать на сообщения
Вы не можете редактировать свои сообщения
Вы не можете удалять свои сообщения
Вы не можете голосовать в опросах
Вы не можете прикреплять файлы к сообщениям
Вы не можете скачивать файлы

[  Время выполнения: 0,045 сек  |  MySQL: 0,003 сек (6%) · 3 запр.  |  GZIP выкл  |  Память: 422,29 KB / 1,75 MB / 1,37 MB  |  Лимит: 8 7 7  ]