Двойная жизнь / Double Life (2023) WEB-DL [H.264/1080p] [MVO]

Ответить на тему
 
Автор Сообщение

admin ®

Пол: Не указан

Стаж: 6 месяца 19 дня

Сообщений: 11520

Создавать темы 30-Янв-2024 17:19

[Цитировать]

Двойная жизнь / Double Life (2023) WEB-DL [H.264/1080p] - Производство: Канада / Lighthouse Pictures, Motion Pictures Association of America members
Жанр: триллер, криминал
Режиссер: Мартин Вуд
Актеры: Джависия Лесли, Джон Кассини, Винсент Гэйл, Аарон Дуглас, Найалл Мэттер, Джоджо Ахенкора, Вероника Хадрава, Б.Дж. Харрисон, Паскаль Хаттон, Уильям МакДональд
Описание:
После смерти своего мужа героиня узнает, что он жил двойной жизнью и имел любовницу. Вторая женщина приходит к вдове, чтобы сообщить ей, что смерть их любимого мужчины была не случайной. Официальная жена и любовница вынуждены сотрудничать, чтобы вместе наказать убийцу.
Рейтинг MPAA: R (лицам до 17 лет обязательно присутствие взрослого)
Продолжительность: 01:29:39
Качество видео: WEB-DL (1080p)
Перевод: Многоголосый профессиональный (HDRezka Studio)
Язык озвучки: русский, английский
Субтитры: Русские (Forced), английские
Видео: AVC/H.264, 1920x800, ~6861 Кbps
Аудио 1: AC3, 6 ch, 448 Кbps | Русский
Аудио 2: E-AC3, 6 ch, 640 Кbps | Английский

MediaInfo:

Общее
Уникальный идентификатор : 146244686442487037820819587555255349952 (0x6E05B3BBB149E3C040755F2CB5C372C0)
Полное имя : D:\NNM\Двойная жизнь\Double.Life.2023.1080p_от New-Team_JNS82.mkv
Формат : Matroska
Версия формата : Version 4
Размер файла : 4,98 Гбайт
Продолжительность : 1 ч. 29 м.
Общий поток : 7 952 Кбит/сек
Название фильма : Double.Life.2023.1080p_от New-Team_JNS82
Дата кодирования : UTC 2023-08-13 08:55:11
Программа кодирования : mkvmerge v59.0.0 ('Shining Star') 64-bit
Библиотека кодирования : libebml v1.4.2 + libmatroska v1.6.4
Видео
Идентификатор : 1
Формат : AVC
Формат/Информация : Advanced Video Codec
Профиль формата : High@L4
Настройки формата : CABAC / 4 Ref Frames
Параметр CABAC формата : Да
Параметр RefFrames формата : 4 кадра
Идентификатор кодека : V_MPEG4/ISO/AVC
Продолжительность : 1 ч. 29 м.
Вид битрейта : Постоянный
Битрейт : 6 861 Кбит/сек
Номинальный битрейт : 10 000 Кбит/сек
Ширина : 1 920 пикселей
Высота : 800 пикселей
Соотношение сторон : 2,40:1
Режим частоты кадров : Постоянный
Частота кадров : 23,976 (24000/1001) кадра/сек
Цветовое пространство : YUV
Субдискретизация насыщенности : 4:2:0
Битовая глубина : 8 бит
Тип развёртки : Прогрессивная
Бит/(Пиксели*Кадры) : 0.186
Размер потока : 4,30 Гбайт (86%)
Заголовок : NT
Default : Да
Forced : Нет
Цветовой диапазон : Limited
Основные цвета : BT.709
Характеристики трансфера : BT.709
Коэффициенты матрицы : BT.709
Аудио #1
Идентификатор : 2
Формат : AC-3
Формат/Информация : Audio Coding 3
Коммерческое название : Dolby Digital
Идентификатор кодека : A_AC3
Продолжительность : 1 ч. 29 м.
Вид битрейта : Постоянный
Битрейт : 448 Кбит/сек
Каналы : 6 каналов
Channel layout : L R C LFE Ls Rs
Частота : 48,0 КГц
Частота кадров : 31,250 кадров/сек (1536 SPF)
Метод сжатия : С потерями
Размер потока : 287 Мбайт (6%)
Заголовок : MVO - HDRezka Studio
Язык : Russian
Service kind : Complete Main
Default : Да
Forced : Нет
Аудио #2
Идентификатор : 3
Формат : E-AC-3
Формат/Информация : Enhanced AC-3
Коммерческое название : Dolby Digital Plus
Идентификатор кодека : A_EAC3
Продолжительность : 1 ч. 29 м.
Вид битрейта : Постоянный
Битрейт : 640 Кбит/сек
Каналы : 6 каналов
Channel layout : L R C LFE Ls Rs
Частота : 48,0 КГц
Частота кадров : 31,250 кадров/сек (1536 SPF)
Метод сжатия : С потерями
Размер потока : 410 Мбайт (8%)
Заголовок : Original
Язык : English
Service kind : Complete Main
Default : Нет
Forced : Нет
Текст #1
Идентификатор : 4
Формат : UTF-8
Идентификатор кодека : S_TEXT/UTF8
Идентификатор кодека/Информация : UTF-8 Plain Text
Продолжительность : 1 ч. 9 м.
Битрейт : 1 бит/сек
Count of elements : 13
Размер потока : 588 байт (0%)
Заголовок : [forced [HDRezka]]
Язык : Russian
Default : Да
Forced : Нет
Текст #2
Идентификатор : 5
Формат : UTF-8
Идентификатор кодека : S_TEXT/UTF8
Идентификатор кодека/Информация : UTF-8 Plain Text
Продолжительность : 1 ч. 29 м.
Битрейт : 68 бит/сек
Count of elements : 1423
Размер потока : 44,7 Кбайт (0%)
Заголовок : [SDH]
Язык : English
Default : Нет
Forced : Нет
Скриншоты:
Все одноименные релизы в КлубеВремя раздачи: 24/7 (до 10-ти скачавших)
[Профиль] [ЛС]
Показать сообщения:    
Ответить на тему

Текущее время: 17-Апр 14:43

Часовой пояс: UTC ± 0



Вы не можете начинать темы
Вы не можете отвечать на сообщения
Вы не можете редактировать свои сообщения
Вы не можете удалять свои сообщения
Вы не можете голосовать в опросах
Вы не можете прикреплять файлы к сообщениям
Вы не можете скачивать файлы

[  Время выполнения: 0,039 сек  |  MySQL: 0,003 сек (9%) · 3 запр.  |  GZIP выкл  |  Память: 422,29 KB / 1,75 MB / 1,37 MB  |  Лимит: 8 7 8  ]